<?xml version="1.0" standalone="no"?>
<!DOCTYPE svg PUBLIC "-//W3C//DTD SVG 1.1//EN" "http://www.w3.org/Graphics/SVG/1.1/DTD/svg11.dtd" >
<svg xmlns="http://www.w3.org/2000/svg" xmlns:xlink="http://www.w3.org/1999/xlink" version="1.1">
<metadata>
Created by FontForge 20201107 at Tue Jan 15 18:09:31 2002
 By Jimmy Wärting
Typeface and data (c) 1995-1999 Microsoft Corporation. All Rights Reserved.
</metadata>
<defs>
<font id="Tahoma-Bold" horiz-adv-x="0" >
  <font-face 
    font-family="Tahoma"
    font-weight="700"
    font-stretch="normal"
    units-per-em="2048"
    panose-1="2 11 8 4 3 5 4 4 2 4"
    ascent="1638"
    descent="-410"
    x-height="1123"
    cap-height="1489"
    bbox="-1429 -424 3328 2182"
    underline-thickness="201"
    underline-position="-244"
    unicode-range="U+0020-FFFC"
  />
<missing-glyph horiz-adv-x="2048" 
d="M256 0v1536h1536v-1536h-1536zM384 128h1280v1280h-1280v-1280z" />
    <glyph glyph-name="afii62881" unicode="&#x651;&#x64b;" horiz-adv-x="618" 
d="M362.5 1424.5q-32.5 17.5 -45.5 42.5q-9 -38 -49.5 -72.5t-99.5 -34.5q-76 0 -121 44t-45 124q0 27 1.5 57.5t2.5 43.5h96v-7q-1 -11 -3.5 -39t-2.5 -53q0 -36 18.5 -56t53.5 -20q43 0 68.5 38t25.5 114v70h94v-60q0 -57 22.5 -85.5t57.5 -28.5q41 0 63.5 27.5t22.5 84.5
q0 34 -2.5 58t-3.5 36v7h94q1 -10 3.5 -31t2.5 -72q0 -98 -49.5 -151.5t-130.5 -53.5q-41 0 -73.5 17.5zM598 2019l-573 -100v100l573 97v-97zM598 1819l-573 -101v101l573 96v-96z" />
    <glyph glyph-name="afii62882" unicode="&#x651;&#x64c;" horiz-adv-x="613" arabic-form="isolated" 
d="M359.5 1380.5q-32.5 17.5 -45.5 42.5q-9 -38 -49.5 -72.5t-99.5 -34.5q-76 0 -121 44t-45 124q0 27 1.5 57.5t2.5 43.5h96v-7q-1 -11 -3.5 -39t-2.5 -53q0 -36 18.5 -56t53.5 -20q43 0 68.5 38t25.5 114v70h94v-60q0 -57 22.5 -85.5t57.5 -28.5q41 0 63.5 27.5t22.5 84.5
q0 34 -2.5 58t-3.5 36v7h94q1 -10 3.5 -31t2.5 -72q0 -98 -49.5 -151.5t-130.5 -53.5q-41 0 -73.5 17.5zM352 1804q-51 16 -90 57.5t-39 98.5q0 69 46.5 113.5t125.5 44.5q68 0 119 -45.5t51 -116.5q0 -34 -18 -70.5t-35 -50.5l63 -12v-86l-126 28q-93 -53 -198 -81
t-202 -35l4 36q3 36 6 78q2 33 5.5 78t3.5 55q0 13 -5 22t-24 9q-18 0 -42 -1.5t-32 -2.5v96q6 0 45 3t64 3q32 0 55 -18.5t23 -50.5q0 -46 -7 -128l-8 -83q42 6 99 18.5t116 40.5zM428 1860q21 18 34 40.5t13 57.5q0 29 -23.5 47t-52.5 18q-35 0 -58.5 -16.5t-23.5 -48.5
q0 -34 28.5 -59t82.5 -39z" />
    <glyph glyph-name="afii62883" unicode="&#x651;&#x64d;" horiz-adv-x="618" arabic-form="isolated" 
d="M362.5 1827.5q-32.5 17.5 -45.5 42.5q-9 -38 -49.5 -72.5t-99.5 -34.5q-76 0 -121 44t-45 124q0 27 1.5 57.5t2.5 43.5h96v-7q-1 -11 -3.5 -39t-2.5 -53q0 -36 18.5 -56t53.5 -20q43 0 68.5 38t25.5 114v70h94v-60q0 -57 22.5 -85.5t57.5 -28.5q41 0 63.5 27.5t22.5 84.5
q0 34 -2.5 58t-3.5 36v7h94q1 -10 3.5 -31t2.5 -72q0 -98 -49.5 -151.5t-130.5 -53.5q-41 0 -73.5 17.5zM598 1652l-573 -97v100l573 97v-100zM598 1450l-573 -97v100l573 97v-100z" />
    <glyph glyph-name="afii62884" unicode="&#x651;&#x64e;" horiz-adv-x="614" arabic-form="isolated" 
d="M360.5 1635.5q-32.5 17.5 -45.5 42.5q-9 -38 -49.5 -72.5t-99.5 -34.5q-76 0 -121 44t-45 124q0 27 1.5 57.5t2.5 43.5h96v-7q-1 -11 -3.5 -39t-2.5 -53q0 -36 18.5 -56t53.5 -20q43 0 68.5 38t25.5 114v70h94v-60q0 -57 22.5 -85.5t57.5 -28.5q41 0 63.5 27.5t22.5 84.5
q0 34 -2.5 58t-3.5 36v7h94q1 -10 3.5 -31t2.5 -72q0 -98 -49.5 -151.5t-130.5 -53.5q-41 0 -73.5 17.5zM594 2017l-574 -100v100l574 97v-97z" />
    <glyph glyph-name="afii62885" unicode="&#x651;&#x64f;" horiz-adv-x="614" arabic-form="isolated" 
d="M360.5 1370.5q-32.5 17.5 -45.5 42.5q-9 -38 -49.5 -72.5t-99.5 -34.5q-76 0 -121 44t-45 124q0 27 1.5 57.5t2.5 43.5h96v-7q-1 -11 -3.5 -39t-2.5 -53q0 -36 18.5 -56t53.5 -20q43 0 68.5 38t25.5 114v70h94v-60q0 -57 22.5 -85.5t57.5 -28.5q41 0 63.5 27.5t22.5 84.5
q0 34 -2.5 58t-3.5 36v7h94q1 -10 3.5 -31t2.5 -72q0 -98 -49.5 -151.5t-130.5 -53.5q-41 0 -73.5 17.5zM557 1737l-127 28q-91 -52 -180.5 -79t-188.5 -33v88q76 5 141.5 18.5t131.5 44.5q-51 16 -90 57t-39 99q0 69 46 113.5t126 44.5q68 0 119 -45.5t51 -116.5
q0 -34 -18.5 -70.5t-34.5 -50.5l63 -12v-86zM410 1860q20 17 33.5 40t13.5 58q0 29 -23.5 47t-52.5 18q-35 0 -58.5 -16.5t-23.5 -48.5q0 -34 28.5 -59t82.5 -39z" />
    <glyph glyph-name="afii62886" unicode="&#x651;&#x650;" horiz-adv-x="614" arabic-form="isolated" 
d="M360.5 1825.5q-32.5 17.5 -45.5 42.5q-9 -38 -49.5 -72.5t-99.5 -34.5q-76 0 -121 44t-45 124q0 27 1.5 57.5t2.5 43.5h96v-7q-1 -11 -3.5 -39t-2.5 -53q0 -36 18.5 -56t53.5 -20q43 0 68.5 38t25.5 114v70h94v-60q0 -57 22.5 -85.5t57.5 -28.5q41 0 63.5 27.5t22.5 84.5
q0 34 -2.5 58t-3.5 36v7h94q1 -10 3.5 -31t2.5 -72q0 -98 -49.5 -151.5t-130.5 -53.5q-41 0 -73.5 17.5zM602 1673l-573 -98v100l573 97v-99z" />
    <glyph glyph-name="afii64184" unicode="&#xfedf;&#xfee0;&#xfeea;" horiz-adv-x="2486" arabic-form="isolated" 
d="M795 645v240q-181 -9 -273 -62.5t-92 -144.5q0 -46 38 -77.5t95 -31.5q58 0 122 20t110 56zM1556 147q-35 -63 -121.5 -107t-205.5 -44q-160 0 -269 99t-145 288q-46 -52 -123.5 -85.5t-152.5 -33.5q-189 0 -302.5 115t-113.5 297q0 233 178 356.5t512 138.5l260 13v-586
q0 -117 41.5 -177.5t130.5 -60.5q91 0 131.5 57.5t40.5 180.5v866h279v-866q0 -123 41.5 -180.5t132.5 -57.5q97 0 136.5 57t39.5 181v866h278v-866q0 -292 -118.5 -445t-329.5 -153q-120 0 -203 45t-117 102zM1606.5 1613.5q-32.5 17.5 -45.5 42.5q-9 -38 -49.5 -72.5
t-99.5 -34.5q-76 0 -121 44t-45 124q0 27 1.5 57.5t2.5 43.5h96v-7q-1 -11 -3.5 -39t-2.5 -53q0 -36 18.5 -56t53.5 -20q43 0 68.5 38t25.5 114v70h94v-60q0 -57 22.5 -85.5t57.5 -28.5q41 0 63.5 27.5t22.5 84.5q0 34 -2.5 58t-3.5 36v7h94q1 -10 3.5 -31t2.5 -72
q0 -98 -49.5 -151.5t-130.5 -53.5q-41 0 -73.5 17.5zM1506 2180h94v-210h-94v210z" />
    <glyph glyph-name="afii62834" unicode="&#xfedf;&#xfe82;" horiz-adv-x="1399" arabic-form="isolated" 
d="M1237 563q0 -148 -59.5 -257.5t-156.5 -179.5q-98 -71 -221 -105.5t-253 -34.5q-152 0 -255.5 10t-117.5 12v363h8q13 -2 104.5 -12.5t262.5 -10.5q13 0 23.5 1t13.5 1l-473 1129h305l428 -1082q41 19 76.5 64t35.5 114v979h279v-991zM526 1649q-19 -15 -57.5 -34.5
t-89.5 -19.5q-39 0 -115.5 31t-114.5 31q-33 0 -79 -25t-68 -39v101q17 14 62.5 35.5t84.5 21.5q35 0 113.5 -30.5t116.5 -30.5q43 0 88.5 23t58.5 34v-98z" />
    <glyph glyph-name="afii62835" unicode="&#xfee0;&#xfe82;" horiz-adv-x="1493" arabic-form="final" 
d="M1397 0q-106 0 -185 43.5t-139 126.5q-101 -94 -238.5 -139t-287.5 -45q-152 0 -255.5 10t-117.5 12v363h8q13 -2 104.5 -12.5t262.5 -10.5q13 0 23.5 1t13.5 1l-473 1129h305l428 -1082q41 19 76.5 64t35.5 114v979h279v-956q0 -62 17 -106.5t44 -73.5q29 -30 64.5 -44
t79.5 -14h53v-360h-98zM1399 0zM539 1649q-19 -15 -57.5 -34.5t-89.5 -19.5q-39 0 -115.5 31t-114.5 31q-33 0 -79 -25t-68 -39v101q17 14 62.5 35.5t84.5 21.5q35 0 113.5 -30.5t116.5 -30.5q43 0 88.5 23t58.5 34v-98z" />
    <glyph glyph-name="afii62836" unicode="&#xfedf;&#xfe84;" horiz-adv-x="1399" arabic-form="isolated" 
d="M1237 563q0 -148 -59.5 -257.5t-156.5 -179.5q-98 -71 -221 -105.5t-253 -34.5q-152 0 -255.5 10t-117.5 12v363h8q13 -2 104.5 -12.5t262.5 -10.5q13 0 23.5 1t13.5 1l-473 1129h305l428 -1082q41 19 76.5 64t35.5 114v979h279v-991zM428 1596h-336v94h74
q-24 13 -39.5 42t-15.5 60q0 64 47 112t127 48q53 0 78.5 -6t35.5 -10v-101h-6q-14 6 -47.5 14.5t-58.5 8.5q-44 0 -66 -18t-22 -48q0 -45 46 -73.5t109 -28.5h74v-94z" />
    <glyph glyph-name="afii62837" unicode="&#xfee0;&#xfe84;" horiz-adv-x="1493" arabic-form="final" 
d="M1397 0q-106 0 -185 43.5t-139 126.5q-101 -94 -238.5 -139t-287.5 -45q-152 0 -255.5 10t-117.5 12v363h8q13 -2 104.5 -12.5t262.5 -10.5q13 0 23.5 1t13.5 1l-473 1129h305l428 -1082q41 19 76.5 64t35.5 114v979h279v-956q0 -62 17 -106.5t44 -73.5q29 -30 64.5 -44
t79.5 -14h53v-360h-98zM1399 0zM369 1596h-336v94h74q-24 13 -39.5 42t-15.5 60q0 64 47 112t127 48q53 0 78.5 -6t35.5 -10v-101h-6q-14 6 -47.5 14.5t-58.5 8.5q-44 0 -66 -18t-22 -48q0 -45 46 -73.5t109 -28.5h74v-94z" />
    <glyph glyph-name="afii62838" unicode="&#xfedf;&#xfe88;" horiz-adv-x="1399" arabic-form="isolated" 
d="M1237 563q0 -148 -59.5 -257.5t-156.5 -179.5q-98 -71 -221 -105.5t-253 -34.5q-152 0 -255.5 10t-117.5 12v363h8q13 -2 104.5 -12.5t262.5 -10.5q13 0 23.5 1t13.5 1l-473 1129h305l428 -1082q41 19 76.5 64t35.5 114v979h279v-991zM705 -423h-336v94h74
q-24 13 -39.5 42t-15.5 60q0 64 47 112t127 48q53 0 78.5 -6t35.5 -10v-101h-6q-14 6 -47.5 14.5t-58.5 8.5q-44 0 -66 -18t-22 -48q0 -45 46 -73.5t109 -28.5h74v-94z" />
    <glyph glyph-name="afii62839" unicode="&#xfee0;&#xfe88;" horiz-adv-x="1493" arabic-form="final" 
d="M1397 0q-106 0 -185 43.5t-139 126.5q-101 -94 -238.5 -139t-287.5 -45q-152 0 -255.5 10t-117.5 12v363h8q13 -2 104.5 -12.5t262.5 -10.5q13 0 23.5 1t13.5 1l-473 1129h305l428 -1082q41 19 76.5 64t35.5 114v979h279v-956q0 -62 17 -106.5t44 -73.5q29 -30 64.5 -44
t79.5 -14h53v-360h-98zM1399 0zM731 -423h-336v94h74q-24 13 -39.5 42t-15.5 60q0 64 47 112t127 48q53 0 78.5 -6t35.5 -10v-101h-6q-14 6 -47.5 14.5t-58.5 8.5q-44 0 -66 -18t-22 -48q0 -45 46 -73.5t109 -28.5h74v-94z" />
    <glyph glyph-name="afii62840" unicode="&#xfedf;&#xfe8e;" horiz-adv-x="1399" arabic-form="isolated" 
d="M1237 563q0 -148 -59.5 -257.5t-156.5 -179.5q-98 -71 -221 -105.5t-253 -34.5q-152 0 -255.5 10t-117.5 12v363h8q13 -2 104.5 -12.5t262.5 -10.5q13 0 23.5 1t13.5 1l-473 1129h305l428 -1082q41 19 76.5 64t35.5 114v979h279v-991z" />
    <glyph glyph-name="afii62841" unicode="&#xfee0;&#xfe8e;" horiz-adv-x="1493" arabic-form="final" 
d="M1397 0q-106 0 -185 43.5t-139 126.5q-101 -94 -238.5 -139t-287.5 -45q-152 0 -255.5 10t-117.5 12v363h8q13 -2 104.5 -12.5t262.5 -10.5q13 0 23.5 1t13.5 1l-473 1129h305l428 -1082q41 19 76.5 64t35.5 114v979h279v-956q0 -62 17 -106.5t44 -73.5q29 -30 64.5 -44
t79.5 -14h53v-360h-98zM1399 0z" />
    <glyph glyph-name="afii57369" unicode="&#x6a4;" horiz-adv-x="1171" arabic-form="medial" 
d="M1171 0h-139q-71 0 -135.5 15.5t-121.5 39.5q-57 25 -102.5 51t-88.5 54q-45 -28 -85 -53t-105 -52t-119 -41t-138 -14h-207v360h133q83 0 143.5 10t82.5 17q-53 48 -84 110t-31 146q0 83 27.5 148.5t81.5 117.5q52 49 129.5 77t171.5 28q192 0 301.5 -108t109.5 -281
q0 -69 -33 -130.5t-85 -107.5q14 -5 28 -7t45 -7q37 -5 72 -9t84 -4h65v-360zM719 612q0 45 -37.5 80t-95.5 35q-66 0 -100.5 -35.5t-34.5 -79.5q0 -38 47.5 -75t89.5 -54q52 24 91.5 59.5t39.5 69.5zM494 1249h-148v148h148v-148zM790 1249h-148v148h148v-148zM642 1458
h-148v148h148v-148z" />
    <glyph glyph-name="afii57371" unicode="&#x6a4;" horiz-adv-x="2154" arabic-form="final" 
d="M2154 0h-264q-93 0 -175 25.5t-150 72.5q-74 -47 -159.5 -72.5t-170.5 -25.5h-291q-393 0 -605 147.5t-212 442.5q0 99 15 188.5t16 95.5h272v-8q-5 -22 -14.5 -105t-9.5 -159q0 -113 146 -177.5t392 -64.5h322q-50 38 -96 116t-46 151q0 158 124.5 269.5t310.5 111.5
q185 0 312.5 -111t127.5 -279q0 -78 -54 -157t-85 -101h294v-360zM1647 468q25 30 39 56.5t14 61.5q0 61 -44 99t-97 38q-57 0 -96.5 -39t-39.5 -98q0 -28 16 -59.5t39 -58.5q18 -22 45 -43t40 -24q17 5 41.5 25t42.5 42zM1470 1249h-148v148h148v-148zM1766 1249h-148v148
h148v-148zM1618 1458h-148v148h148v-148z" />
    <glyph glyph-name="afii57372" unicode="&#x6a4;" horiz-adv-x="1110" arabic-form="initial" 
d="M827 1116q74 -92 117 -222t43 -296q0 -140 -62.5 -253t-158.5 -188q-99 -77 -215 -117t-227 -40h-394v360h371q135 0 237 41t149 117q-20 -3 -72 -7.5t-99 -4.5q-93 0 -166.5 26.5t-126.5 78.5q-50 49 -76 115t-26 144q0 171 104.5 296.5t257.5 125.5q94 0 182 -43.5
t162 -132.5zM692 780q-12 81 -72.5 146t-115.5 65q-48 0 -77.5 -35.5t-29.5 -81.5q0 -45 36 -75.5t95 -30.5q38 0 95.5 3.5t68.5 8.5zM373 1534h-148v148h148v-148zM669 1534h-148v148h148v-148zM521 1743h-148v148h148v-148z" />
    <glyph glyph-name="afii57506" unicode="&#x67e;" horiz-adv-x="1901" arabic-form="isolated" 
d="M1772 582q0 -281 -203 -435.5t-621 -154.5q-417 0 -618 157t-201 433q0 96 14 184t17 100h274v-10q-6 -30 -16 -114.5t-10 -147.5q0 -114 140.5 -177t401.5 -63q258 0 400.5 63t142.5 177q0 79 -11 156t-16 106v10h273q7 -29 20 -123t13 -161zM874 -214h-148v148h148
v-148zM1170 -214h-148v148h148v-148zM1022 -423h-148v148h148v-148z" />
    <glyph glyph-name="afii62958" unicode="&#x67e;" horiz-adv-x="2107" arabic-form="final" 
d="M2107 0h-159q-78 0 -158 43.5t-117 106.5q-40 -64 -121.5 -107t-183.5 -43h-424q-405 0 -612 151.5t-207 438.5q0 96 16 183t21 101h266v-8q-6 -25 -16.5 -109t-10.5 -155q0 -113 142 -177.5t403 -64.5h249h128q91 0 153 38.5t62 115.5q0 84 -5 134.5t-7 62.5v10h270
q6 -24 14.5 -89.5t8.5 -125.5q0 -58 43 -102t104 -44h141v-360zM1901 0zM932 -214h-148v148h148v-148zM1228 -214h-148v148h148v-148zM1080 -423h-148v148h148v-148z" />
    <glyph glyph-name="afii62956" unicode="&#x67e;" horiz-adv-x="698" arabic-form="initial" 
d="M537 598q0 -275 -120.5 -436.5t-318.5 -161.5h-168v360h123q93 0 149 63t56 175v293h279v-293zM125 -214h-148v148h148v-148zM421 -214h-148v148h148v-148zM273 -423h-148v148h148v-148z" />
    <glyph glyph-name="afii52957" unicode="&#x67e;" horiz-adv-x="793" arabic-form="medial" 
d="M793 0h-99q-106 0 -186 45t-113 102q-42 -68 -118.5 -107.5t-178.5 -39.5h-168v360h123q89 0 146 61.5t57 176.5v123h279v-123q0 -107 54 -172.5t150 -65.5h54v-360zM698 0zM295 -214h-148v148h148v-148zM591 -214h-148v148h148v-148zM443 -423h-148v148h148v-148z" />
    <glyph glyph-name="afii57505" unicode="&#x6a4;" horiz-adv-x="2095" arabic-form="isolated" 
d="M1972 590q0 -158 -79 -271.5t-204 -183.5q-128 -73 -290.5 -108t-339.5 -35h-45q-448 0 -669.5 148.5t-221.5 441.5q0 83 13 182.5t14 107.5h274v-4q-3 -15 -14 -118.5t-11 -155.5q0 -114 150.5 -178t464.5 -64h22q174 0 287 11t182 32q66 20 103 47.5t64 67.5
q-12 0 -27 -2t-40 -4q-24 -2 -52.5 -4t-51.5 -2q-185 0 -290 101t-105 263q0 178 108.5 300t253.5 122q204 0 354 -189.5t150 -504.5zM1677 772q-12 81 -72.5 146t-115.5 65q-48 0 -77.5 -35.5t-29.5 -81.5q0 -45 36 -75.5t95 -30.5q38 0 95.5 3.5t68.5 8.5zM1343 1526h-148
v148h148v-148zM1639 1526h-148v148h148v-148zM1491 1735h-148v148h148v-148z" />
    <glyph glyph-name="afii57459" unicode="&#x6a1;" horiz-adv-x="1110" 
d="M827 1116q74 -92 117 -222t43 -296q0 -140 -62.5 -253t-158.5 -188q-99 -77 -215 -117t-227 -40h-394v360h371q135 0 237 41t149 117q-20 -3 -72 -7.5t-99 -4.5q-93 0 -166.5 26.5t-126.5 78.5q-50 49 -76 115t-26 144q0 171 104.5 296.5t257.5 125.5q94 0 182 -43.5
t162 -132.5zM692 780q-12 81 -72.5 146t-115.5 65q-48 0 -77.5 -35.5t-29.5 -81.5q0 -45 36 -75.5t95 -30.5q38 0 95.5 3.5t68.5 8.5z" />
    <glyph glyph-name="afii57374" unicode="&#x6a1;" horiz-adv-x="1171" 
d="M1171 0h-139q-71 0 -135.5 15.5t-121.5 39.5q-57 25 -102.5 51t-88.5 54q-45 -28 -85 -53t-105 -52t-119 -41t-138 -14h-207v360h133q83 0 143.5 10t82.5 17q-53 48 -84 110t-31 146q0 83 27.5 148.5t81.5 117.5q52 49 129.5 77t171.5 28q192 0 301.5 -108t109.5 -281
q0 -69 -33 -130.5t-85 -107.5q14 -5 28 -7t45 -7q37 -5 72 -9t84 -4h65v-360zM719 612q0 45 -37.5 80t-95.5 35q-66 0 -100.5 -35.5t-34.5 -79.5q0 -38 47.5 -75t89.5 -54q52 24 91.5 59.5t39.5 69.5z" />
    <glyph glyph-name="afii52258" unicode="&#x6a1;" horiz-adv-x="2154" 
d="M2154 0h-264q-93 0 -175 25.5t-150 72.5q-74 -47 -159.5 -72.5t-170.5 -25.5h-291q-393 0 -605 147.5t-212 442.5q0 99 15 188.5t16 95.5h272v-8q-5 -22 -14.5 -105t-9.5 -159q0 -113 146 -177.5t392 -64.5h322q-50 38 -96 116t-46 151q0 158 124.5 269.5t310.5 111.5
q185 0 312.5 -111t127.5 -279q0 -78 -54 -157t-85 -101h294v-360zM1647 468q25 30 39 56.5t14 61.5q0 61 -44 99t-97 38q-57 0 -96.5 -39t-39.5 -98q0 -28 16 -59.5t39 -58.5q18 -22 45 -43t40 -24q17 5 41.5 25t42.5 42z" />
    <glyph glyph-name="afii57507" unicode="&#x686;" horiz-adv-x="1425" arabic-form="isolated" 
d="M1303 575h-132q-193 0 -339.5 -27t-244.5 -77q-96 -49 -143 -119t-47 -153q0 -117 99.5 -191t279.5 -74q130 0 255.5 25t219.5 70h9v-346q-94 -52 -220 -79.5t-262 -27.5q-276 0 -465.5 171.5t-189.5 449.5q0 113 52.5 212.5t148.5 178.5q95 78 231.5 128t304.5 64
q-61 19 -246 45.5t-344 26.5h-67v309h84q226 0 489.5 -85t468.5 -232h58v-269zM759 242h-148v148h148v-148zM1055 242h-148v148h148v-148zM907 33h-148v148h148v-148z" />
    <glyph glyph-name="afii62961" unicode="&#x686;" horiz-adv-x="1618" arabic-form="final" 
d="M1458 575v-120q0 -47 25 -71t73 -24h62v-360h-74q-153 0 -233 77.5t-80 237.5v260h-60q-193 0 -339 -27t-243 -77q-90 -46 -139 -115t-49 -157q0 -117 97.5 -191t277.5 -74q105 0 219.5 16t212.5 52h9v-346q-108 -43 -212 -61.5t-227 -18.5q-137 0 -255.5 43t-208.5 125
q-89 81 -140 195.5t-51 257.5q0 113 52.5 212.5t148.5 178.5q95 78 231.5 128t309.5 64q-16 6 -53 14t-115 22q-72 13 -189 24.5t-238 11.5h-67v309h59q251 0 515.5 -81t467.5 -236h260v-269h-47zM1303 844zM1425 0zM768 250h-148v148h148v-148zM1064 250h-148v148h148v-148
zM916 41h-148v148h148v-148z" />
    <glyph glyph-name="afii62959" unicode="&#x686;" horiz-adv-x="1538" arabic-form="initial" 
d="M1436 584l-455 -258q-69 -38 -148.5 -87t-202.5 -109q-114 -56 -213.5 -93t-193.5 -37h-293v360h301q174 0 313 44t353 159q-112 51 -270.5 84t-317.5 33h-203v309h213q174 0 366 -62t464 -222l287 151v-272zM963 -90h-148v148h148v-148zM1259 -90h-148v148h148v-148z
M1111 -299h-148v148h148v-148z" />
    <glyph glyph-name="afii62960" unicode="&#x686;" horiz-adv-x="1538" arabic-form="medial" 
d="M887 270q-171 -102 -352.5 -186t-311.5 -84h-293v360h301q197 0 343 53t323 150q-112 51 -270.5 84t-317.5 33h-203v309h213q181 0 372.5 -64t457.5 -220l287 151v-272l-351 -199q22 -13 45 -19t60 -6h348v-360h-305q-165 0 -251 63t-95 207zM633 -214h-148v148h148v-148
zM929 -214h-148v148h148v-148zM781 -423h-148v148h148v-148z" />
    <glyph glyph-name="afii57508" unicode="&#x698;" horiz-adv-x="946" arabic-form="isolated" 
d="M829 299q0 -184 -82 -330t-255 -246q-135 -77 -284.5 -112t-299.5 -35v363q93 0 213.5 17.5t206.5 52.5q99 41 158 103.5t59 153.5q0 109 -46 231.5t-83 180.5v12h293q21 -26 70.5 -146t49.5 -245zM457 931h-148v148h148v-148zM753 931h-148v148h148v-148zM605 1140h-148
v148h148v-148z" />
    <glyph glyph-name="afii62962" unicode="&#x698;" horiz-adv-x="1042" arabic-form="final" 
d="M1042 0h-98q-38 0 -88 12t-76 27q-56 -136 -160.5 -225.5t-228.5 -141.5q-126 -53 -252 -74.5t-231 -21.5v363q93 0 213.5 17.5t206.5 52.5q99 41 158 103.5t59 153.5q0 67 -18 138t-40 126q-25 61 -44.5 98.5t-26.5 49.5v12h293q21 -37 50.5 -101t39.5 -100
q17 -58 63 -93.5t125 -35.5h55v-360zM946 0zM829 299zM457 932h-148v148h148v-148zM753 932h-148v148h148v-148zM605 1141h-148v148h148v-148z" />
    <glyph glyph-name="afii57567" unicode="&#x6a9;" horiz-adv-x="2077" arabic-form="isolated" 
d="M1501 360q69 0 110.5 24.5t41.5 59.5q0 29 -32.5 63t-107.5 85l-282 190q-125 82 -167 140t-42 122q0 89 72 159t202 118l721 266v-299l-594 -194q-53 -17 -76.5 -34.5t-23.5 -31.5q0 -18 35.5 -46t87.5 -62l256 -168q106 -70 158.5 -149.5t52.5 -188.5
q0 -186 -118.5 -300t-301.5 -114h-535q-217 0 -375.5 40.5t-259.5 116.5q-100 76 -149 185t-49 248q0 97 15.5 181.5t21.5 102.5h266v-10q-7 -35 -17 -112.5t-10 -149.5q0 -114 134 -178t423 -64h543z" />
    <glyph glyph-name="afii62964" unicode="&#x6a9;" horiz-adv-x="2163" arabic-form="final" 
d="M1501 360q69 0 110.5 24.5t41.5 59.5q0 29 -32.5 63t-107.5 85l-282 190q-125 82 -167 140t-42 122q0 89 72 159t202 118l721 266v-299l-594 -194q-53 -17 -76.5 -34.5t-23.5 -31.5q0 -18 35.5 -46t87.5 -62l256 -168q106 -70 158.5 -149.5t52.5 -188.5
q29 -27 62.5 -40.5t74.5 -13.5h113v-360h-156q-80 0 -144.5 22.5t-105.5 57.5q-56 -40 -118 -60t-146 -20h-535q-217 0 -375.5 40.5t-259.5 116.5q-100 76 -149 185t-49 248q0 97 15.5 181.5t21.5 102.5h266v-10q-7 -35 -17 -112.5t-10 -149.5q0 -114 134 -178t423 -64h543z
M2077 0z" />
    <glyph glyph-name="afii52305" unicode="&#x6a9;" horiz-adv-x="1139" arabic-form="initial" 
d="M1079 1288l-594 -194q-53 -17 -76.5 -34.5t-23.5 -31.5q0 -18 35.5 -46t87.5 -62l256 -168q106 -70 158.5 -149.5t52.5 -188.5q0 -186 -118.5 -300t-301.5 -114h-625v360h633q69 0 110.5 24.5t41.5 59.5q0 29 -32.5 63t-107.5 85l-282 190q-125 82 -167 139t-42 123
q0 83 71 156t203 121l721 266v-299z" />
    <glyph glyph-name="afii52306" unicode="&#x6a9;" horiz-adv-x="1225" arabic-form="medial" 
d="M1225 0h-156q-77 0 -142 22t-108 58q-56 -40 -118 -60t-146 -20h-625v360h633q69 0 110.5 24.5t41.5 59.5q0 29 -32.5 63t-107.5 85l-282 190q-125 82 -167 139t-42 123q0 83 71 156t203 121l721 266v-299l-594 -194q-53 -17 -76.5 -34.5t-23.5 -31.5q0 -18 35.5 -46
t87.5 -62l256 -168q106 -70 158.5 -149.5t52.5 -188.5q29 -27 62.5 -40.5t74.5 -13.5h113v-360zM1139 0z" />
    <glyph glyph-name="afii57509" unicode="&#x6af;" horiz-adv-x="2077" arabic-form="isolated" 
d="M1501 360q69 0 110.5 24.5t41.5 59.5q0 29 -32.5 63t-107.5 85l-282 190q-125 82 -167 140t-42 122q0 89 72 159t202 118l721 266v-299l-594 -194q-53 -17 -76.5 -34.5t-23.5 -31.5q0 -18 35.5 -46t87.5 -62l256 -168q106 -70 158.5 -149.5t52.5 -188.5
q0 -186 -118.5 -300t-301.5 -114h-535q-217 0 -375.5 40.5t-259.5 116.5q-100 76 -149 185t-49 248q0 97 15.5 181.5t21.5 102.5h266v-10q-7 -35 -17 -112.5t-10 -149.5q0 -114 134 -178t423 -64h543zM2003 1681l-791 -290v100l791 291v-101z" />
    <glyph glyph-name="afii62967" unicode="&#x6af;" horiz-adv-x="2163" arabic-form="final" 
d="M1501 360q69 0 110.5 24.5t41.5 59.5q0 29 -32.5 63t-107.5 85l-282 190q-125 82 -167 140t-42 122q0 89 72 159t202 118l721 266v-299l-594 -194q-53 -17 -76.5 -34.5t-23.5 -31.5q0 -18 35.5 -46t87.5 -62l256 -168q106 -70 158.5 -149.5t52.5 -188.5
q29 -27 62.5 -40.5t74.5 -13.5h113v-360h-156q-80 0 -144.5 22.5t-105.5 57.5q-56 -40 -118 -60t-146 -20h-535q-217 0 -375.5 40.5t-259.5 116.5q-100 76 -149 185t-49 248q0 97 15.5 181.5t21.5 102.5h266v-10q-7 -35 -17 -112.5t-10 -149.5q0 -114 134 -178t423 -64h543z
M2003 1681l-791 -290v100l791 291v-101zM2077 0z" />
    <glyph glyph-name="afii62965" unicode="&#x6af;" horiz-adv-x="1139" arabic-form="initial" 
d="M1079 1288l-594 -194q-53 -17 -76.5 -34.5t-23.5 -31.5q0 -18 35.5 -46t87.5 -62l256 -168q106 -70 158.5 -149.5t52.5 -188.5q0 -186 -118.5 -300t-301.5 -114h-625v360h633q69 0 110.5 24.5t41.5 59.5q0 29 -32.5 63t-107.5 85l-282 190q-125 82 -167 139t-42 123
q0 83 71 156t203 121l721 266v-299zM1065 1681l-791 -290v100l791 291v-101z" />
    <glyph glyph-name="afii62966" unicode="&#x6af;" horiz-adv-x="1225" arabic-form="medial" 
d="M1225 0h-155q-80 0 -144.5 22.5t-105.5 57.5q-56 -40 -118 -60t-146 -20h-626v360h634q69 0 110.5 24.5t41.5 59.5q0 29 -32.5 63.5t-107.5 84.5l-282 190q-124 83 -166.5 140.5t-42.5 121.5q0 89 72 159t202 118l721 266v-299l-594 -194q-50 -16 -75 -34t-25 -32
q0 -18 35.5 -46t87.5 -62l256 -168q106 -70 158.5 -149.5t52.5 -188.5q29 -27 62.5 -40.5t74.5 -13.5h112v-360zM1066 1681l-791 -290v100l791 291v-101zM1139 0z" />
    <glyph glyph-name="afii57555" unicode="&#x6cc;" horiz-adv-x="1991" arabic-form="isolated" 
d="M1860 932h-9q-54 29 -176 53.5t-243 24.5q-102 0 -158.5 -24.5t-56.5 -65.5q0 -36 106 -68.5t222 -70.5q55 -19 116 -47t109 -63q45 -34 73.5 -79t28.5 -100q0 -234 -269 -366t-782 -132q-354 0 -527 127t-173 403q0 125 14.5 225.5t16.5 112.5h272v-18
q-4 -16 -15.5 -122t-11.5 -196q0 -82 85.5 -126t340.5 -44q381 0 575.5 30.5t194.5 102.5q0 35 -75.5 64.5t-223.5 69.5q-65 18 -136.5 49t-116.5 65q-45 33 -74 80t-29 105q0 171 138 288t358 117q128 0 241.5 -22t184.5 -50v-323z" />
    <glyph glyph-name="afii52364" unicode="&#x6cc;" horiz-adv-x="2247" arabic-form="final" 
d="M2247 0h-58q-53 0 -102 28t-95 72q-46 46 -91.5 106t-84.5 115q-42 60 -83.5 118t-83.5 103q-43 47 -85.5 74t-86.5 27q-52 0 -90.5 -33t-38.5 -63q0 -32 58.5 -75t111.5 -82q84 -61 127 -119t43 -115q0 -223 -227 -353.5t-638 -130.5q-364 0 -532 132.5t-168 402.5
q0 110 11.5 207.5t19.5 126.5h274v-11q-4 -22 -15.5 -112.5t-11.5 -208.5q0 -89 91 -132.5t333 -43.5q292 0 438 31.5t146 93.5q0 45 -55.5 87t-114.5 82q-65 44 -117.5 97.5t-52.5 124.5q0 144 119.5 255t288.5 111q68 0 124.5 -25t103.5 -62q54 -42 97 -93t80 -98
q40 -51 78 -101.5t74 -88.5q39 -41 74 -64t77 -23h62v-360z" />
    <glyph glyph-name="afii52399" unicode="&#x621;" horiz-adv-x="866" arabic-form="isolated" 
d="M760 147l-617 -190v262l99 33q-48 18 -96 85t-48 136q0 145 97.5 239.5t255.5 94.5q75 0 133 -7.5t100 -17.5v-256h-8q-32 7 -95 17t-116 10q-62 0 -95.5 -24.5t-33.5 -61.5q0 -51 50 -84t130 -43l244 70v-263z" />
    <glyph glyph-name="afii52400" unicode="&#x622;" horiz-adv-x="627" arabic-form="isolated" 
d="M442 -4h-278v1556h278v-1556zM569 1731q-19 -15 -57.5 -34.5t-89.5 -19.5q-39 0 -115.5 31t-114.5 31q-33 0 -79 -25t-68 -39v101q17 14 62.5 35.5t84.5 21.5q35 0 113.5 -30.5t116.5 -30.5q43 0 88.5 23t58.5 34v-98z" />
    <glyph glyph-name="afii62753" unicode="&#x622;" horiz-adv-x="698" arabic-form="final" 
d="M698 0h-98q-202 0 -320 164.5t-118 433.5v956h278v-956q0 -62 17 -106.5t44 -73.5q28 -28 64 -43t80 -15h53v-360zM627 0zM569 1731q-19 -15 -57.5 -34.5t-89.5 -19.5q-39 0 -115.5 31t-114.5 31q-33 0 -79 -25t-68 -39v101q17 14 62.5 35.5t84.5 21.5q35 0 113.5 -30.5
t116.5 -30.5q43 0 88.5 23t58.5 34v-98z" />
    <glyph glyph-name="afii57411" unicode="&#x623;" horiz-adv-x="627" arabic-form="isolated" 
d="M442 -4h-278v1556h278v-1556zM465 1678h-336v94h74q-24 13 -39.5 42t-15.5 60q0 64 47 112t127 48q53 0 78.5 -6t35.5 -10v-101h-6q-14 6 -47.5 14.5t-58.5 8.5q-44 0 -66 -18t-22 -48q0 -45 46 -73.5t109 -28.5h74v-94z" />
    <glyph glyph-name="afii62754" unicode="&#x623;" horiz-adv-x="698" arabic-form="final" 
d="M698 0h-98q-202 0 -320 164.5t-118 433.5v956h278v-956q0 -62 17 -106.5t44 -73.5q28 -28 64 -43t80 -15h53v-360zM627 0zM455 1678h-336v94h74q-24 13 -39.5 42t-15.5 60q0 64 47 112t127 48q53 0 78.5 -6t35.5 -10v-101h-6q-14 6 -47.5 14.5t-58.5 8.5q-44 0 -66 -18
t-22 -48q0 -45 46 -73.5t109 -28.5h74v-94z" />
    <glyph glyph-name="afii57412" unicode="&#x624;" horiz-adv-x="1083" arabic-form="isolated" 
d="M961 274q0 -204 -97.5 -351.5t-284.5 -228.5q-146 -65 -311.5 -91.5t-359.5 -26.5v344q85 0 218 10t221 30q104 23 188 63t120 104q-10 -2 -55.5 -8t-54.5 -6q-205 0 -328 117.5t-123 295.5q0 190 121.5 321.5t282.5 131.5q193 0 328 -194t135 -511zM666 449
q-19 97 -60.5 152.5t-95.5 55.5t-96.5 -36.5t-42.5 -88.5q0 -37 40 -67.5t121 -30.5q42 0 83 5.5t51 9.5zM633 1188h-336v94h74q-24 13 -39.5 42t-15.5 60q0 64 47 112t127 48q53 0 78.5 -6t35.5 -10v-101h-6q-14 6 -47.5 14.5t-58.5 8.5q-44 0 -66 -18t-22 -48
q0 -45 46 -73.5t109 -28.5h74v-94z" />
    <glyph glyph-name="afii62755" unicode="&#x624;" horiz-adv-x="1157" arabic-form="final" 
d="M694 383q-13 136 -63 215.5t-103 79.5q-54 0 -91.5 -43t-37.5 -103t88 -101t207 -48zM1157 0h-4q-55 0 -127 7t-88 9q-63 -136 -183 -223.5t-262 -134.5t-285.5 -64.5t-270.5 -17.5v344q186 0 322 23.5t215 50.5q91 31 123.5 50.5t39.5 23.5q-250 28 -382 154.5
t-132 303.5q0 186 118.5 319.5t284.5 133.5q186 0 314 -171t147 -441q17 -2 76.5 -4.5t85.5 -2.5h8v-360zM961 274zM1083 0zM705 1188h-336v94h74q-24 13 -39.5 42t-15.5 60q0 64 47 112t127 48q53 0 78.5 -6t35.5 -10v-101h-6q-14 6 -47.5 14.5t-58.5 8.5q-44 0 -66 -18
t-22 -48q0 -45 46 -73.5t109 -28.5h74v-94z" />
    <glyph glyph-name="afii57413" unicode="&#x625;" horiz-adv-x="627" arabic-form="isolated" 
d="M442 -4h-278v1556h278v-1556zM458 -423h-336v94h74q-24 13 -39.5 42t-15.5 60q0 64 47 112t127 48q53 0 78.5 -6t35.5 -10v-101h-6q-14 6 -47.5 14.5t-58.5 8.5q-44 0 -66 -18t-22 -48q0 -45 46 -73.5t109 -28.5h74v-94z" />
    <glyph glyph-name="afii62756" unicode="&#x625;" horiz-adv-x="698" arabic-form="final" 
d="M698 0h-98q-202 0 -320 164.5t-118 433.5v956h278v-956q0 -62 17 -106.5t44 -73.5q28 -28 64 -43t80 -15h53v-360zM627 0zM514 -424h-336v94h74q-24 13 -39.5 42t-15.5 60q0 64 47 112t127 48q53 0 78.5 -6t35.5 -10v-101h-6q-14 6 -47.5 14.5t-58.5 8.5q-44 0 -66 -18
t-22 -48q0 -45 46 -73.5t109 -28.5h74v-94z" />
    <glyph glyph-name="afii57414" unicode="&#x626;" horiz-adv-x="1991" arabic-form="isolated" 
d="M1860 932h-9q-54 29 -176 53.5t-243 24.5q-102 0 -158.5 -24.5t-56.5 -65.5q0 -36 106 -68.5t222 -70.5q55 -19 116 -47t109 -63q45 -34 73.5 -79t28.5 -100q0 -234 -269 -366t-782 -132q-354 0 -527 127t-173 403q0 125 14.5 225.5t16.5 112.5h272v-18
q-4 -16 -15.5 -122t-11.5 -196q0 -82 85.5 -126t340.5 -44q381 0 575.5 30.5t194.5 102.5q0 35 -75.5 64.5t-223.5 69.5q-65 18 -136.5 49t-116.5 65q-45 33 -74 80t-29 105q0 171 138 288t358 117q128 0 241.5 -22t184.5 -50v-323zM756 1079h-336v94h74q-24 13 -39.5 42
t-15.5 60q0 64 47 112t127 48q53 0 78.5 -6t35.5 -10v-101h-6q-14 6 -47.5 14.5t-58.5 8.5q-44 0 -66 -18t-22 -48q0 -45 46 -73.5t109 -28.5h74v-94z" />
    <glyph glyph-name="afii62759" unicode="&#x626;" horiz-adv-x="2247" arabic-form="final" 
d="M2247 0h-58q-53 0 -102 28t-95 72q-46 46 -91.5 106t-84.5 115q-42 60 -83.5 118t-83.5 103q-43 47 -85.5 74t-86.5 27q-52 0 -90.5 -33t-38.5 -63q0 -32 58.5 -75t111.5 -82q84 -61 127 -119t43 -115q0 -223 -227 -353.5t-638 -130.5q-364 0 -532 132.5t-168 402.5
q0 110 11.5 207.5t19.5 126.5h274v-11q-4 -22 -15.5 -112.5t-11.5 -208.5q0 -89 91 -132.5t333 -43.5q292 0 438 31.5t146 93.5q0 45 -55.5 87t-114.5 82q-65 44 -117.5 97.5t-52.5 124.5q0 144 119.5 255t288.5 111q68 0 124.5 -25t103.5 -62q54 -42 97 -93t80 -98
q40 -51 78 -101.5t74 -88.5q39 -41 74 -64t77 -23h62v-360zM866 709h-336v94h74q-24 13 -39.5 42t-15.5 60q0 64 47 112t127 48q53 0 78.5 -6t35.5 -10v-101h-6q-14 6 -47.5 14.5t-58.5 8.5q-44 0 -66 -18t-22 -48q0 -45 46 -73.5t109 -28.5h74v-94z" />
    <glyph glyph-name="afii62757" unicode="&#x626;" horiz-adv-x="698" arabic-form="initial" 
d="M537 598q0 -275 -120.5 -436.5t-318.5 -161.5h-168v360h123q93 0 149 63t56 175v293h279v-293zM500 1130h-336v94h74q-24 13 -39.5 42t-15.5 60q0 64 47 112t127 48q53 0 78.5 -6t35.5 -10v-101h-6q-14 6 -47.5 14.5t-58.5 8.5q-44 0 -66 -18t-22 -48q0 -45 46 -73.5
t109 -28.5h74v-94z" />
    <glyph glyph-name="afii62758" unicode="&#x626;" horiz-adv-x="793" arabic-form="medial" 
d="M793 0h-99q-106 0 -186 45t-113 102q-42 -68 -118.5 -107.5t-178.5 -39.5h-168v360h123q89 0 146 61.5t57 176.5v123h279v-123q0 -107 54 -172.5t150 -65.5h54v-360zM698 0zM557 963h-336v94h74q-24 13 -39.5 42t-15.5 60q0 64 47 112t127 48q53 0 78.5 -6t35.5 -10v-101
h-6q-14 6 -47.5 14.5t-58.5 8.5q-44 0 -66 -18t-22 -48q0 -45 46 -73.5t109 -28.5h74v-94z" />
    <glyph glyph-name="afii57415" unicode="&#x627;" horiz-adv-x="627" arabic-form="isolated" 
d="M442 -4h-278v1556h278v-1556z" />
    <glyph glyph-name="afii62760" unicode="&#x627;" horiz-adv-x="698" arabic-form="final" 
d="M698 0h-98q-202 0 -320 164.5t-118 433.5v956h278v-956q0 -62 17 -106.5t44 -73.5q28 -28 64 -43t80 -15h53v-360zM627 0z" />
    <glyph glyph-name="afii57416" unicode="&#x628;" horiz-adv-x="1901" arabic-form="isolated" 
d="M1772 582q0 -281 -203 -435.5t-621 -154.5q-417 0 -618 157t-201 433q0 96 14 184t17 100h274v-10q-6 -30 -16 -114.5t-10 -147.5q0 -114 140.5 -177t401.5 -63q258 0 400.5 63t142.5 177q0 79 -11 156t-16 106v10h273q7 -29 20 -123t13 -161zM1024 -310h-148v148h148
v-148z" />
    <glyph glyph-name="afii62763" unicode="&#x628;" horiz-adv-x="2107" arabic-form="final" 
d="M2107 0h-159q-78 0 -158 43.5t-117 106.5q-40 -64 -121.5 -107t-183.5 -43h-424q-405 0 -612 151.5t-207 438.5q0 96 16 183t21 101h266v-8q-6 -25 -16.5 -109t-10.5 -155q0 -113 142 -177.5t403 -64.5h249h128q91 0 153 38.5t62 115.5q0 84 -5 134.5t-7 62.5v10h270
q6 -24 14.5 -89.5t8.5 -125.5q0 -58 43 -102t104 -44h141v-360zM1901 0zM1145 -295h-148v148h148v-148z" />
    <glyph glyph-name="afii62761" unicode="&#x628;" horiz-adv-x="698" arabic-form="initial" 
d="M537 598q0 -275 -120.5 -436.5t-318.5 -161.5h-168v360h123q93 0 149 63t56 175v293h279v-293zM302 -295h-148v148h148v-148z" />
    <glyph glyph-name="afii62762" unicode="&#x628;" horiz-adv-x="793" arabic-form="medial" 
d="M793 0h-99q-106 0 -186 45t-113 102q-42 -68 -118.5 -107.5t-178.5 -39.5h-168v360h123q89 0 146 61.5t57 176.5v123h279v-123q0 -107 54 -172.5t150 -65.5h54v-360zM698 0zM400 -295h-148v148h148v-148z" />
    <glyph glyph-name="afii57417" unicode="&#x629;" horiz-adv-x="1114" arabic-form="isolated" 
d="M1036 453q0 -210 -135.5 -341.5t-339.5 -131.5q-208 0 -340.5 130.5t-132.5 342.5q0 146 75.5 259t209.5 195l37 23l-134 127h322l180 -158q130 -112 194 -219.5t64 -226.5zM768 500q0 64 -43 124.5t-129 135.5l-16 14l-37 -22q-86 -52 -132 -112.5t-46 -139.5
q0 -63 54 -111.5t144 -48.5q88 0 146.5 50.5t58.5 109.5zM455 1296h-148v148h148v-148zM723 1296h-148v148h148v-148z" />
    <glyph glyph-name="afii62764" unicode="&#x629;" horiz-adv-x="1362" arabic-form="final" 
d="M1362 0h-96q-92 0 -162 32.5t-121 86.5t-83.5 121t-53.5 143q-59 -53 -149.5 -86t-168.5 -33q-189 0 -302 115t-113 297q0 114 51 203.5t147 153.5q95 62 230.5 96t302.5 42l260 13v-586q0 -114 58 -176t145 -62h55v-360zM825 645v240q-193 -17 -299 -64t-106 -143
q0 -46 38 -77.5t95 -31.5q77 0 155 25t117 51zM539 1409h-148v148h148v-148zM807 1409h-148v148h148v-148z" />
    <glyph glyph-name="afii57418" unicode="&#x62a;" horiz-adv-x="1901" arabic-form="isolated" 
d="M1772 582q0 -281 -203 -435.5t-621 -154.5q-417 0 -618 157t-201 433q0 96 14 184t17 100h274v-10q-6 -30 -16 -114.5t-10 -147.5q0 -114 140.5 -177t401.5 -63q258 0 400.5 63t142.5 177q0 79 -11 156t-16 106v10h273q7 -29 20 -123t13 -161zM882 1024h-148v148h148
v-148zM1150 1024h-148v148h148v-148z" />
    <glyph glyph-name="afii62767" unicode="&#x62a;" horiz-adv-x="2107" arabic-form="final" 
d="M2107 0h-159q-78 0 -158 43.5t-117 106.5q-40 -64 -121.5 -107t-183.5 -43h-424q-405 0 -612 151.5t-207 438.5q0 96 16 183t21 101h266v-8q-6 -25 -16.5 -109t-10.5 -155q0 -113 142 -177.5t403 -64.5h249h128q91 0 153 38.5t62 115.5q0 84 -5 134.5t-7 62.5v10h270
q6 -24 14.5 -89.5t8.5 -125.5q0 -58 43 -102t104 -44h141v-360zM1901 0zM969 1024h-148v148h148v-148zM1237 1024h-148v148h148v-148z" />
    <glyph glyph-name="afii62765" unicode="&#x62a;" horiz-adv-x="698" arabic-form="initial" 
d="M537 598q0 -275 -120.5 -436.5t-318.5 -161.5h-168v360h123q93 0 149 63t56 175v293h279v-293zM214 1135h-148v148h148v-148zM482 1135h-148v148h148v-148z" />
    <glyph glyph-name="afii62766" unicode="&#x62a;" horiz-adv-x="793" arabic-form="medial" 
d="M793 0h-99q-106 0 -186 45t-113 102q-42 -68 -118.5 -107.5t-178.5 -39.5h-168v360h123q89 0 146 61.5t57 176.5v123h279v-123q0 -107 54 -172.5t150 -65.5h54v-360zM698 0zM304 963h-148v148h148v-148zM572 963h-148v148h148v-148z" />
    <glyph glyph-name="afii57419" unicode="&#x62b;" horiz-adv-x="1901" arabic-form="isolated" 
d="M1772 582q0 -281 -203 -435.5t-621 -154.5q-417 0 -618 157t-201 433q0 96 14 184t17 100h274v-10q-6 -30 -16 -114.5t-10 -147.5q0 -114 140.5 -177t401.5 -63q258 0 400.5 63t142.5 177q0 79 -11 156t-16 106v10h273q7 -29 20 -123t13 -161zM873 1024h-148v148h148
v-148zM1169 1024h-148v148h148v-148zM1021 1233h-148v148h148v-148z" />
    <glyph glyph-name="afii62770" unicode="&#x62b;" horiz-adv-x="2107" arabic-form="final" 
d="M2107 0h-159q-78 0 -158 43.5t-117 106.5q-40 -64 -121.5 -107t-183.5 -43h-424q-405 0 -612 151.5t-207 438.5q0 96 16 183t21 101h266v-8q-6 -25 -16.5 -109t-10.5 -155q0 -113 142 -177.5t403 -64.5h249h128q91 0 153 38.5t62 115.5q0 84 -5 134.5t-7 62.5v10h270
q6 -24 14.5 -89.5t8.5 -125.5q0 -58 43 -102t104 -44h141v-360zM1901 0zM991 1024h-148v148h148v-148zM1287 1024h-148v148h148v-148zM1139 1233h-148v148h148v-148z" />
    <glyph glyph-name="afii62768" unicode="&#x62b;" horiz-adv-x="698" arabic-form="initial" 
d="M537 598q0 -275 -120.5 -436.5t-318.5 -161.5h-168v360h123q93 0 149 63t56 175v293h279v-293zM213 1135h-148v148h148v-148zM509 1135h-148v148h148v-148zM361 1344h-148v148h148v-148z" />
    <glyph glyph-name="afii62769" unicode="&#x62b;" horiz-adv-x="793" arabic-form="medial" 
d="M793 0h-99q-106 0 -186 45t-113 102q-42 -68 -118.5 -107.5t-178.5 -39.5h-168v360h123q89 0 146 61.5t57 176.5v123h279v-123q0 -107 54 -172.5t150 -65.5h54v-360zM698 0zM277 963h-148v148h148v-148zM573 963h-148v148h148v-148zM425 1172h-148v148h148v-148z" />
    <glyph glyph-name="afii57420" unicode="&#x62c;" horiz-adv-x="1425" arabic-form="isolated" 
d="M1303 575h-132q-193 0 -339.5 -27t-244.5 -77q-96 -49 -143 -119t-47 -153q0 -117 99.5 -191t279.5 -74q130 0 255.5 25t219.5 70h9v-346q-94 -52 -220 -79.5t-262 -27.5q-276 0 -465.5 171.5t-189.5 449.5q0 113 52.5 212.5t148.5 178.5q95 78 231.5 128t304.5 64
q-61 19 -246 45.5t-344 26.5h-67v309h84q226 0 489.5 -85t468.5 -232h58v-269zM813 156h-148v148h148v-148z" />
    <glyph glyph-name="afii62773" unicode="&#x62c;" horiz-adv-x="1618" arabic-form="final" 
d="M1458 575v-120q0 -47 25 -71t73 -24h62v-360h-74q-153 0 -233 77.5t-80 237.5v260h-60q-193 0 -339 -27t-243 -77q-90 -46 -139 -115t-49 -157q0 -117 97.5 -191t277.5 -74q105 0 219.5 16t212.5 52h9v-346q-108 -43 -212 -61.5t-227 -18.5q-137 0 -255.5 43t-208.5 125
q-89 81 -140 195.5t-51 257.5q0 113 52.5 212.5t148.5 178.5q95 78 231.5 128t309.5 64q-16 6 -53 14t-115 22q-72 13 -189 24.5t-238 11.5h-67v309h59q251 0 515.5 -81t467.5 -236h260v-269h-47zM1303 844zM1425 0zM844 160h-148v148h148v-148z" />
    <glyph glyph-name="afii62771" unicode="&#x62c;" horiz-adv-x="1538" arabic-form="initial" 
d="M1436 584l-455 -258q-69 -38 -148.5 -87t-202.5 -109q-114 -56 -213.5 -93t-193.5 -37h-293v360h301q174 0 313 44t353 159q-112 51 -270.5 84t-317.5 33h-203v309h213q174 0 366 -62t464 -222l287 151v-272zM1262 -76h-148v148h148v-148z" />
    <glyph glyph-name="afii62772" unicode="&#x62c;" horiz-adv-x="1538" arabic-form="medial" 
d="M887 270q-171 -102 -352.5 -186t-311.5 -84h-293v360h301q197 0 343 53t323 150q-112 51 -270.5 84t-317.5 33h-203v309h213q181 0 372.5 -64t457.5 -220l287 151v-272l-351 -199q22 -13 45 -19t60 -6h348v-360h-305q-165 0 -251 63t-95 207zM738 -293h-148v148h148v-148
z" />
    <glyph glyph-name="afii57421" unicode="&#x62d;" horiz-adv-x="1425" arabic-form="isolated" 
d="M1303 575h-132q-193 0 -339.5 -27t-244.5 -77q-96 -49 -143 -119t-47 -153q0 -117 99.5 -191t279.5 -74q130 0 255.5 25t219.5 70h9v-346q-94 -52 -220 -79.5t-262 -27.5q-276 0 -465.5 171.5t-189.5 449.5q0 113 52.5 212.5t148.5 178.5q95 78 231.5 128t304.5 64
q-61 19 -246 45.5t-344 26.5h-67v309h84q226 0 489.5 -85t468.5 -232h58v-269z" />
    <glyph glyph-name="afii62776" unicode="&#x62d;" horiz-adv-x="1618" arabic-form="final" 
d="M1458 575v-120q0 -47 25 -71t73 -24h62v-360h-74q-153 0 -233 77.5t-80 237.5v260h-60q-193 0 -339 -27t-243 -77q-90 -46 -139 -115t-49 -157q0 -117 97.5 -191t277.5 -74q105 0 219.5 16t212.5 52h9v-346q-108 -43 -212 -61.5t-227 -18.5q-137 0 -255.5 43t-208.5 125
q-89 81 -140 195.5t-51 257.5q0 113 52.5 212.5t148.5 178.5q95 78 231.5 128t309.5 64q-16 6 -53 14t-115 22q-72 13 -189 24.5t-238 11.5h-67v309h59q251 0 515.5 -81t467.5 -236h260v-269h-47zM1303 844zM1425 0z" />
    <glyph glyph-name="afii62774" unicode="&#x62d;" horiz-adv-x="1538" arabic-form="initial" 
d="M1436 584l-455 -258q-69 -38 -148.5 -87t-202.5 -109q-114 -56 -213.5 -93t-193.5 -37h-293v360h301q174 0 313 44t353 159q-112 51 -270.5 84t-317.5 33h-203v309h213q174 0 366 -62t464 -222l287 151v-272z" />
    <glyph glyph-name="afii62775" unicode="&#x62d;" horiz-adv-x="1538" arabic-form="medial" 
d="M887 270q-171 -102 -352.5 -186t-311.5 -84h-293v360h301q197 0 343 53t323 150q-112 51 -270.5 84t-317.5 33h-203v309h213q181 0 372.5 -64t457.5 -220l287 151v-272l-351 -199q22 -13 45 -19t60 -6h348v-360h-305q-165 0 -251 63t-95 207z" />
    <glyph glyph-name="afii57422" unicode="&#x62e;" horiz-adv-x="1425" arabic-form="isolated" 
d="M1303 575h-132q-193 0 -339.5 -27t-244.5 -77q-96 -49 -143 -119t-47 -153q0 -117 99.5 -191t279.5 -74q130 0 255.5 25t219.5 70h9v-346q-94 -52 -220 -79.5t-262 -27.5q-276 0 -465.5 171.5t-189.5 449.5q0 113 52.5 212.5t148.5 178.5q95 78 231.5 128t304.5 64
q-61 19 -246 45.5t-344 26.5h-67v309h84q226 0 489.5 -85t468.5 -232h58v-269zM998 1304h-148v148h148v-148z" />
    <glyph glyph-name="afii62779" unicode="&#x62e;" horiz-adv-x="1618" arabic-form="final" 
d="M1458 575v-120q0 -47 25 -71t73 -24h62v-360h-74q-153 0 -233 77.5t-80 237.5v260h-60q-193 0 -339 -27t-243 -77q-90 -46 -139 -115t-49 -157q0 -117 97.5 -191t277.5 -74q105 0 219.5 16t212.5 52h9v-346q-108 -43 -212 -61.5t-227 -18.5q-137 0 -255.5 43t-208.5 125
q-89 81 -140 195.5t-51 257.5q0 113 52.5 212.5t148.5 178.5q95 78 231.5 128t309.5 64q-16 6 -53 14t-115 22q-72 13 -189 24.5t-238 11.5h-67v309h59q251 0 515.5 -81t467.5 -236h260v-269h-47zM1303 844zM1425 0zM1051 1305h-148v148h148v-148z" />
    <glyph glyph-name="afii62777" unicode="&#x62e;" horiz-adv-x="1538" arabic-form="initial" 
d="M1436 584l-455 -258q-69 -38 -148.5 -87t-202.5 -109q-114 -56 -213.5 -93t-193.5 -37h-293v360h301q174 0 313 44t353 159q-112 51 -270.5 84t-317.5 33h-203v309h213q174 0 366 -62t464 -222l287 151v-272zM947 1133h-148v148h148v-148z" />
    <glyph glyph-name="afii62778" unicode="&#x62e;" horiz-adv-x="1538" arabic-form="medial" 
d="M887 270q-171 -102 -352.5 -186t-311.5 -84h-293v360h301q197 0 343 53t323 150q-112 51 -270.5 84t-317.5 33h-203v309h213q181 0 372.5 -64t457.5 -220l287 151v-272l-351 -199q22 -13 45 -19t60 -6h348v-360h-305q-165 0 -251 63t-95 207zM926 1231h-148v148h148v-148
z" />
    <glyph glyph-name="afii57423" unicode="&#x62f;" horiz-adv-x="1114" arabic-form="isolated" 
d="M768 822q106 -86 179 -186.5t73 -201.5q0 -207 -124.5 -320.5t-334.5 -113.5h-481v360h479q100 0 142 20.5t42 59.5q0 42 -32.5 84.5t-91.5 86.5q-59 45 -136.5 91t-183.5 105v323h8q96 -58 229.5 -142.5t231.5 -165.5z" />
    <glyph glyph-name="afii62780" unicode="&#x62f;" horiz-adv-x="1178" arabic-form="final" 
d="M1178 0h-191q-96 0 -160 34.5t-100 104.5q-45 -77 -116.5 -108t-164.5 -31h-344v360h355q75 0 123.5 26.5t48.5 59.5q0 9 -4.5 27.5t-10.5 36.5l-188 637h311l156 -539q14 -48 33.5 -101.5t35.5 -79.5q19 -32 44.5 -49.5t62.5 -17.5h109v-360zM1114 0z" />
    <glyph glyph-name="afii57424" unicode="&#x630;" horiz-adv-x="1114" arabic-form="isolated" 
d="M768 822q106 -86 179 -186.5t73 -201.5q0 -207 -124.5 -320.5t-334.5 -113.5h-481v360h479q100 0 142 20.5t42 59.5q0 42 -32.5 84.5t-91.5 86.5q-59 45 -136.5 91t-183.5 105v323h8q96 -58 229.5 -142.5t231.5 -165.5zM410 1372h-148v148h148v-148z" />
    <glyph glyph-name="afii62781" unicode="&#x630;" horiz-adv-x="1178" arabic-form="final" 
d="M1178 0h-191q-96 0 -160 34.5t-100 104.5q-45 -77 -116.5 -108t-164.5 -31h-344v360h355q75 0 123.5 26.5t48.5 59.5q0 9 -4.5 27.5t-10.5 36.5l-188 637h311l156 -539q14 -48 33.5 -101.5t35.5 -79.5q19 -32 44.5 -49.5t62.5 -17.5h109v-360zM1114 0zM642 1389h-148v148
h148v-148z" />
    <glyph glyph-name="afii57425" unicode="&#x631;" horiz-adv-x="946" arabic-form="isolated" 
d="M829 299q0 -184 -82 -330t-255 -246q-135 -77 -284.5 -112t-299.5 -35v363q93 0 213.5 17.5t206.5 52.5q99 41 158 103.5t59 153.5q0 109 -46 231.5t-83 180.5v12h293q21 -26 70.5 -146t49.5 -245z" />
    <glyph glyph-name="afii62782" unicode="&#x631;" horiz-adv-x="1042" arabic-form="final" 
d="M1042 0h-98q-38 0 -88 12t-76 27q-56 -136 -160.5 -225.5t-228.5 -141.5q-126 -53 -252 -74.5t-231 -21.5v363q93 0 213.5 17.5t206.5 52.5q99 41 158 103.5t59 153.5q0 67 -18 138t-40 126q-25 61 -44.5 98.5t-26.5 49.5v12h293q21 -37 50.5 -101t39.5 -100
q17 -58 63 -93.5t125 -35.5h55v-360zM946 0zM829 299z" />
    <glyph glyph-name="afii57426" unicode="&#x632;" horiz-adv-x="946" arabic-form="isolated" 
d="M829 299q0 -184 -82 -330t-255 -246q-135 -77 -284.5 -112t-299.5 -35v363q93 0 213.5 17.5t206.5 52.5q99 41 158 103.5t59 153.5q0 109 -46 231.5t-83 180.5v12h293q21 -26 70.5 -146t49.5 -245zM627 932h-148v148h148v-148z" />
    <glyph glyph-name="afii62783" unicode="&#x632;" horiz-adv-x="1042" arabic-form="final" 
d="M1042 0h-98q-38 0 -88 12t-76 27q-56 -136 -160.5 -225.5t-228.5 -141.5q-126 -53 -252 -74.5t-231 -21.5v363q93 0 213.5 17.5t206.5 52.5q99 41 158 103.5t59 153.5q0 67 -18 138t-40 126q-25 61 -44.5 98.5t-26.5 49.5v12h293q21 -37 50.5 -101t39.5 -100
q17 -58 63 -93.5t125 -35.5h55v-360zM946 0zM829 299zM627 932h-148v148h148v-148z" />
    <glyph glyph-name="afii57427" unicode="&#x633;" horiz-adv-x="2871" arabic-form="isolated" 
d="M2748 598q0 -126 -29.5 -238.5t-85.5 -191.5q-59 -83 -141 -128.5t-194 -45.5q-109 0 -199.5 43.5t-128.5 103.5q-56 -75 -140 -111t-183 -36q-60 0 -114.5 27t-86.5 71q-35 -234 -220 -375t-452 -141q-139 0 -258 42.5t-207 124.5q-86 82 -136 207t-50 283
q0 148 16.5 252.5t20.5 130.5h284v-6q-4 -12 -23.5 -144t-19.5 -228q0 -134 106.5 -216.5t266.5 -82.5q177 0 286 102t109 270q0 139 -7.5 268.5t-8.5 139.5h305q0 -174 52.5 -269.5t136.5 -95.5q81 0 132.5 61.5t51.5 155.5v148h278v-150q0 -87 42 -148t118 -61
q87 0 144 57.5t57 180.5v293h278v-293z" />
    <glyph glyph-name="afii62786" unicode="&#x633;" horiz-adv-x="3004" arabic-form="final" 
d="M3004 0h-98q-113 0 -191 42.5t-108 100.5q-39 -66 -133 -107.5t-207 -41.5q-99 0 -179 43.5t-118 103.5q-55 -74 -139 -110.5t-184 -36.5q-60 0 -114.5 27t-86.5 71q-36 -242 -224.5 -379t-447.5 -137q-139 0 -258 42.5t-207 124.5q-86 82 -136 207t-50 283q0 145 17 257
t20 126h284v-12q-9 -32 -26 -149.5t-17 -216.5q0 -143 116 -221t257 -78q172 0 283.5 101t111.5 271q0 139 -7 260.5t-9 147.5h305q0 -174 52.5 -269.5t136.5 -95.5q81 0 132.5 61.5t51.5 155.5v148h278v-150q0 -87 42 -148t118 -61q86 0 142.5 65t56.5 169v297h278v-299
q0 -112 60.5 -172t142.5 -60h55v-360zM2871 0z" />
    <glyph glyph-name="afii62784" unicode="&#x633;" horiz-adv-x="2247" arabic-form="initial" 
d="M2083 592q0 -288 -130 -443t-356 -155q-99 0 -178.5 43.5t-118.5 103.5q-48 -65 -121.5 -106t-203.5 -41q-99 0 -179 43.5t-118 103.5q-49 -65 -129.5 -103t-194.5 -38h-424v360h424q82 0 133.5 58.5t51.5 152.5v148h278v-150q0 -86 42 -147.5t118 -61.5q86 0 135 58
t49 153v148h279v-150q0 -87 41.5 -148t117.5 -61q86 0 145.5 65t59.5 169v297h279v-299z" />
    <glyph glyph-name="afii62785" unicode="&#x633;" horiz-adv-x="2335" arabic-form="medial" 
d="M2335 0h-99q-113 0 -191 42.5t-108 100.5q-34 -62 -129 -105.5t-211 -43.5q-99 0 -178.5 43.5t-118.5 103.5q-42 -62 -125 -104.5t-200 -42.5q-99 0 -179 43.5t-118 103.5q-54 -71 -136 -106t-188 -35h-424v360h424q82 0 133.5 58.5t51.5 152.5v148h278v-150
q0 -86 42 -147.5t118 -61.5q86 0 135 58t49 153v148h279v-150q0 -87 41.5 -148t117.5 -61q86 0 142.5 65t56.5 169v297h279v-299q0 -112 60 -172t142 -60h56v-360zM2247 0z" />
    <glyph glyph-name="afii57428" unicode="&#x634;" horiz-adv-x="2871" arabic-form="isolated" 
d="M2748 598q0 -126 -29.5 -238.5t-85.5 -191.5q-59 -83 -141 -128.5t-194 -45.5q-109 0 -199.5 43.5t-128.5 103.5q-56 -75 -140 -111t-183 -36q-60 0 -114.5 27t-86.5 71q-35 -234 -220 -375t-452 -141q-139 0 -258 42.5t-207 124.5q-86 82 -136 207t-50 283
q0 148 16.5 252.5t20.5 130.5h284v-6q-4 -12 -23.5 -144t-19.5 -228q0 -134 106.5 -216.5t266.5 -82.5q177 0 286 102t109 270q0 139 -7.5 268.5t-8.5 139.5h305q0 -174 52.5 -269.5t136.5 -95.5q81 0 132.5 61.5t51.5 155.5v148h278v-150q0 -87 42 -148t118 -61
q87 0 144 57.5t57 180.5v293h278v-293zM1577 961h-148v148h148v-148zM1873 961h-148v148h148v-148zM1725 1170h-148v148h148v-148z" />
    <glyph glyph-name="afii62789" unicode="&#x634;" horiz-adv-x="3004" arabic-form="final" 
d="M3004 0h-98q-113 0 -191 42.5t-108 100.5q-39 -66 -133 -107.5t-207 -41.5q-99 0 -179 43.5t-118 103.5q-55 -74 -139 -110.5t-184 -36.5q-60 0 -114.5 27t-86.5 71q-36 -242 -224.5 -379t-447.5 -137q-139 0 -258 42.5t-207 124.5q-86 82 -136 207t-50 283q0 145 17 257
t20 126h284v-12q-9 -32 -26 -149.5t-17 -216.5q0 -143 116 -221t257 -78q172 0 283.5 101t111.5 271q0 139 -7 260.5t-9 147.5h305q0 -174 52.5 -269.5t136.5 -95.5q81 0 132.5 61.5t51.5 155.5v148h278v-150q0 -87 42 -148t118 -61q86 0 142.5 65t56.5 169v297h278v-299
q0 -112 60.5 -172t142.5 -60h55v-360zM2871 0zM1870 961h-148v148h148v-148zM2166 961h-148v148h148v-148zM2018 1170h-148v148h148v-148z" />
    <glyph glyph-name="afii62787" unicode="&#x634;" horiz-adv-x="2247" arabic-form="initial" 
d="M2083 592q0 -288 -130 -443t-356 -155q-99 0 -178.5 43.5t-118.5 103.5q-48 -65 -121.5 -106t-203.5 -41q-99 0 -179 43.5t-118 103.5q-49 -65 -129.5 -103t-194.5 -38h-424v360h424q82 0 133.5 58.5t51.5 152.5v148h278v-150q0 -86 42 -147.5t118 -61.5q86 0 135 58
t49 153v148h279v-150q0 -87 41.5 -148t117.5 -61q86 0 145.5 65t59.5 169v297h279v-299zM1231 961h-148v148h148v-148zM1527 961h-148v148h148v-148zM1379 1170h-148v148h148v-148z" />
    <glyph glyph-name="afii62788" unicode="&#x634;" horiz-adv-x="2335" arabic-form="medial" 
d="M2335 0h-99q-113 0 -191 42.5t-108 100.5q-34 -62 -129 -105.5t-211 -43.5q-99 0 -178.5 43.5t-118.5 103.5q-42 -62 -125 -104.5t-200 -42.5q-99 0 -179 43.5t-118 103.5q-54 -71 -136 -106t-188 -35h-424v360h424q82 0 133.5 58.5t51.5 152.5v148h278v-150
q0 -86 42 -147.5t118 -61.5q86 0 135 58t49 153v148h279v-150q0 -87 41.5 -148t117.5 -61q86 0 142.5 65t56.5 169v297h279v-299q0 -112 60 -172t142 -60h56v-360zM2247 0zM1196 961h-148v148h148v-148zM1492 961h-148v148h148v-148zM1344 1170h-148v148h148v-148z" />
    <glyph glyph-name="afii57429" unicode="&#x635;" horiz-adv-x="2910" arabic-form="isolated" 
d="M2385 419q64 27 95 61.5t31 74.5q0 59 -46.5 105.5t-129.5 46.5q-98 0 -180.5 -34.5t-155.5 -88.5q-69 -52 -123.5 -113t-93.5 -111h190q140 0 245 16t168 43zM774 -424q-299 0 -475 177.5t-176 479.5q0 148 17.5 259.5t19.5 123.5h284v-12q-13 -53 -28 -160.5
t-15 -205.5q0 -132 105.5 -215.5t267.5 -83.5q80 0 152 24.5t123 68.5q59 51 89.5 121t30.5 158q0 141 -6 212t-10 93h285l6 -38q9 -60 12.5 -127t26.5 -78q284 403 470 527t380 124q195 0 324.5 -135t129.5 -350q0 -111 -54 -209.5t-150 -171.5q-98 -74 -229.5 -116
t-293.5 -42h-635q-70 -201 -240 -312.5t-411 -111.5z" />
    <glyph glyph-name="afii62792" unicode="&#x635;" horiz-adv-x="3043" arabic-form="final" 
d="M3043 0h-98q-116 0 -199 45.5t-131 142.5q-104 -88 -243.5 -138t-321.5 -50h-625q-70 -201 -240 -312.5t-411 -111.5q-139 0 -258 42.5t-207 124.5q-86 82 -136 207t-50 283q0 143 17 256t20 127h284v-12q-9 -32 -26 -149.5t-17 -216.5q0 -132 105.5 -215.5t267.5 -83.5
q80 0 152 24.5t123 68.5q59 51 89.5 121t30.5 158q0 141 -7 215.5t-9 89.5h285q2 -13 9 -67t9 -96q1 -21 6.5 -44t20.5 -30q101 143 193 255.5t187 196.5q100 88 217 140.5t253 52.5q180 0 308 -118.5t144 -313.5l2 -35q9 -94 67 -145.5t134 -51.5h55v-360zM2387 418
q61 26 92.5 59.5t31.5 71.5q0 65 -49.5 111.5t-126.5 46.5q-96 0 -180.5 -35.5t-154.5 -87.5q-71 -52 -127 -113t-95 -111h198q141 0 246 16.5t165 41.5zM2910 0z" />
    <glyph glyph-name="afii62790" unicode="&#x635;" horiz-adv-x="1905" arabic-form="initial" 
d="M1782 539q0 -110 -54.5 -209.5t-150.5 -171.5q-99 -74 -230.5 -116t-293.5 -42h-541q-64 0 -114.5 21.5t-78.5 76.5q-32 -53 -79 -75.5t-136 -22.5h-174v360h164q40 0 63 22.5t23 66.5v112h279v-108q0 -33 5.5 -50t20.5 -24q84 120 184.5 245.5t191.5 206.5
q100 89 215.5 141t250.5 52q199 0 327 -137t128 -348zM1381 417q61 26 92.5 60.5t31.5 75.5q0 58 -46.5 106t-129.5 48q-95 0 -178 -35.5t-155 -87.5q-70 -52 -123.5 -110t-98.5 -114h195q142 0 246 15.5t166 41.5z" />
    <glyph glyph-name="afii62791" unicode="&#x635;" horiz-adv-x="2023" arabic-form="medial" 
d="M2023 0h-112q-140 0 -217 41.5t-107 120.5q-106 -79 -241 -120.5t-293 -41.5h-541q-64 0 -114.5 21.5t-78.5 76.5q-32 -53 -79 -75.5t-136 -22.5h-174v360h164q40 0 63 22.5t23 66.5v112h279v-108q0 -33 5.5 -50t20.5 -24q101 143 193 255.5t187 196.5q100 88 217 140.5
t253 52.5q189 0 322 -130t133 -355q0 -34 -8 -78.5t-21 -75.5q22 -13 45.5 -19t61.5 -6h155v-360zM1390 417q64 28 93.5 62t29.5 74q0 58 -46.5 106t-129.5 48q-96 0 -179 -35.5t-154 -87.5q-70 -52 -123.5 -110t-98.5 -114h197q142 0 245.5 15.5t165.5 41.5zM1905 0z" />
    <glyph glyph-name="afii57430" unicode="&#x636;" horiz-adv-x="2910" arabic-form="isolated" 
d="M2385 419q64 27 95 61.5t31 74.5q0 59 -46.5 105.5t-129.5 46.5q-98 0 -180.5 -34.5t-155.5 -88.5q-69 -52 -123.5 -113t-93.5 -111h190q140 0 245 16t168 43zM774 -424q-299 0 -475 177.5t-176 479.5q0 148 17.5 259.5t19.5 123.5h284v-12q-13 -53 -28 -160.5
t-15 -205.5q0 -132 105.5 -215.5t267.5 -83.5q80 0 152 24.5t123 68.5q59 51 89.5 121t30.5 158q0 141 -6 212t-10 93h285l6 -38q9 -60 12.5 -127t26.5 -78q284 403 470 527t380 124q195 0 324.5 -135t129.5 -350q0 -111 -54 -209.5t-150 -171.5q-98 -74 -229.5 -116
t-293.5 -42h-635q-70 -201 -240 -312.5t-411 -111.5zM1756 1165h-148v148h148v-148z" />
    <glyph glyph-name="afii62795" unicode="&#x636;" horiz-adv-x="3043" arabic-form="final" 
d="M3043 0h-98q-116 0 -199 45.5t-131 142.5q-104 -88 -243.5 -138t-321.5 -50h-625q-70 -201 -240 -312.5t-411 -111.5q-139 0 -258 42.5t-207 124.5q-86 82 -136 207t-50 283q0 143 17 256t20 127h284v-12q-9 -32 -26 -149.5t-17 -216.5q0 -132 105.5 -215.5t267.5 -83.5
q80 0 152 24.5t123 68.5q59 51 89.5 121t30.5 158q0 141 -7 215.5t-9 89.5h285q2 -13 9 -67t9 -96q1 -21 6.5 -44t20.5 -30q101 143 193 255.5t187 196.5q100 88 217 140.5t253 52.5q180 0 308 -118.5t144 -313.5l2 -35q9 -94 67 -145.5t134 -51.5h55v-360zM2387 418
q61 26 92.5 59.5t31.5 71.5q0 65 -49.5 111.5t-126.5 46.5q-96 0 -180.5 -35.5t-154.5 -87.5q-71 -52 -127 -113t-95 -111h198q141 0 246 16.5t165 41.5zM2910 0zM1778 1167h-148v148h148v-148z" />
    <glyph glyph-name="afii62793" unicode="&#x636;" horiz-adv-x="1905" arabic-form="initial" 
d="M1782 539q0 -110 -54.5 -209.5t-150.5 -171.5q-99 -74 -230.5 -116t-293.5 -42h-541q-64 0 -114.5 21.5t-78.5 76.5q-32 -53 -79 -75.5t-136 -22.5h-174v360h164q40 0 63 22.5t23 66.5v112h279v-108q0 -33 5.5 -50t20.5 -24q84 120 184.5 245.5t191.5 206.5
q100 89 215.5 141t250.5 52q199 0 327 -137t128 -348zM1381 417q61 26 92.5 60.5t31.5 75.5q0 58 -46.5 106t-129.5 48q-95 0 -178 -35.5t-155 -87.5q-70 -52 -123.5 -110t-98.5 -114h195q142 0 246 15.5t166 41.5zM658 1165h-148v148h148v-148z" />
    <glyph glyph-name="afii62794" unicode="&#x636;" horiz-adv-x="2023" arabic-form="medial" 
d="M2023 0h-112q-140 0 -217 41.5t-107 120.5q-106 -79 -241 -120.5t-293 -41.5h-541q-64 0 -114.5 21.5t-78.5 76.5q-32 -53 -79 -75.5t-136 -22.5h-174v360h164q40 0 63 22.5t23 66.5v112h279v-108q0 -33 5.5 -50t20.5 -24q101 143 193 255.5t187 196.5q100 88 217 140.5
t253 52.5q189 0 322 -130t133 -355q0 -34 -8 -78.5t-21 -75.5q22 -13 45.5 -19t61.5 -6h155v-360zM1390 417q64 28 93.5 62t29.5 74q0 58 -46.5 106t-129.5 48q-96 0 -179 -35.5t-154 -87.5q-70 -52 -123.5 -110t-98.5 -114h197q142 0 245.5 15.5t165.5 41.5zM1905 0z
M781 1165h-148v148h148v-148z" />
    <glyph glyph-name="afii57431" unicode="&#x637;" horiz-adv-x="1663" arabic-form="isolated" 
d="M1264 553q0 66 -47 110t-130 44q-92 0 -175 -35.5t-155 -87.5q-63 -46 -119 -103.5t-106 -120.5h197q140 0 244.5 16.5t166.5 43.5q61 27 92.5 61t31.5 72zM1540 549q0 -113 -57 -217t-152 -174q-100 -75 -233 -116.5t-295 -41.5h-873v360h287l31 31v1165h276v-815
q107 122 256.5 202.5t304.5 80.5q198 0 326.5 -132t128.5 -343z" />
    <glyph glyph-name="afii62798" unicode="&#x637;" horiz-adv-x="1765" arabic-form="final" 
d="M1140 420q61 27 92.5 61t31.5 72q0 66 -47 110t-130 44q-92 0 -175 -35.5t-155 -87.5q-63 -46 -119 -103.5t-106 -120.5h197q140 0 244.5 16.5t166.5 43.5zM1764 0h-103q-142 0 -218 42t-106 120q-104 -79 -240 -120.5t-294 -41.5h-873v360h287l31 31v1165h276v-815
q106 121 255 202t306 81q198 0 326.5 -131.5t128.5 -343.5q0 -57 -12 -105t-17 -57q22 -13 45.5 -20t61.5 -7h146v-360zM1663 0z" />
    <glyph glyph-name="afii62796" unicode="&#x637;" horiz-adv-x="1663" arabic-form="initial" 
d="M1264 553q0 66 -47 110t-130 44q-92 0 -175 -35.5t-155 -87.5q-63 -46 -119 -103.5t-106 -120.5h197q140 0 244.5 16.5t166.5 43.5q61 27 92.5 61t31.5 72zM1540 549q0 -113 -57 -217t-152 -174q-100 -75 -233 -116.5t-295 -41.5h-873v360h287l31 31v1165h276v-815
q107 122 256.5 202.5t304.5 80.5q198 0 326.5 -132t128.5 -343z" />
    <glyph glyph-name="afii62797" unicode="&#x637;" horiz-adv-x="1765" arabic-form="medial" 
d="M1140 420q61 27 92.5 61t31.5 72q0 66 -47 110t-130 44q-92 0 -175 -35.5t-155 -87.5q-63 -46 -119 -103.5t-106 -120.5h197q140 0 244.5 16.5t166.5 43.5zM1764 0h-103q-142 0 -218 42t-106 120q-104 -79 -240 -120.5t-294 -41.5h-873v360h287l31 31v1165h276v-815
q106 121 255 202t306 81q198 0 326.5 -131.5t128.5 -343.5q0 -57 -12 -105t-17 -57q22 -13 45.5 -20t61.5 -7h146v-360zM1663 0z" />
    <glyph glyph-name="afii57432" unicode="&#x638;" horiz-adv-x="1663" arabic-form="isolated" 
d="M1264 553q0 66 -47 110t-130 44q-92 0 -175 -35.5t-155 -87.5q-63 -46 -119 -103.5t-106 -120.5h197q140 0 244.5 16.5t166.5 43.5q61 27 92.5 61t31.5 72zM1540 549q0 -113 -57 -217t-152 -174q-100 -75 -233 -116.5t-295 -41.5h-873v360h287l31 31v1165h276v-815
q107 122 256.5 202.5t304.5 80.5q198 0 326.5 -132t128.5 -343zM930 1266h-148v148h148v-148z" />
    <glyph glyph-name="afii62801" unicode="&#x638;" horiz-adv-x="1765" arabic-form="final" 
d="M1140 420q61 27 92.5 61t31.5 72q0 66 -47 110t-130 44q-92 0 -175 -35.5t-155 -87.5q-63 -46 -119 -103.5t-106 -120.5h197q140 0 244.5 16.5t166.5 43.5zM1764 0h-103q-142 0 -218 42t-106 120q-104 -79 -240 -120.5t-294 -41.5h-873v360h287l31 31v1165h276v-815
q106 121 255 202t306 81q198 0 326.5 -131.5t128.5 -343.5q0 -57 -12 -105t-17 -57q22 -13 45.5 -20t61.5 -7h146v-360zM1663 0zM877 1167h-148v148h148v-148z" />
    <glyph glyph-name="afii62799" unicode="&#x638;" horiz-adv-x="1663" arabic-form="initial" 
d="M1264 553q0 66 -47 110t-130 44q-92 0 -175 -35.5t-155 -87.5q-63 -46 -119 -103.5t-106 -120.5h197q140 0 244.5 16.5t166.5 43.5q61 27 92.5 61t31.5 72zM1540 549q0 -113 -57 -217t-152 -174q-100 -75 -233 -116.5t-295 -41.5h-873v360h287l31 31v1165h276v-815
q107 122 256.5 202.5t304.5 80.5q198 0 326.5 -132t128.5 -343zM930 1266h-148v148h148v-148z" />
    <glyph glyph-name="afii62800" unicode="&#x638;" horiz-adv-x="1765" arabic-form="medial" 
d="M1140 420q61 27 92.5 61t31.5 72q0 66 -47 110t-130 44q-92 0 -175 -35.5t-155 -87.5q-63 -46 -119 -103.5t-106 -120.5h197q140 0 244.5 16.5t166.5 43.5zM1764 0h-103q-142 0 -218 42t-106 120q-104 -79 -240 -120.5t-294 -41.5h-873v360h287l31 31v1165h276v-815
q106 121 255 202t306 81q198 0 326.5 -131.5t128.5 -343.5q0 -57 -12 -105t-17 -57q22 -13 45.5 -20t61.5 -7h146v-360zM1663 0zM877 1167h-148v148h148v-148z" />
    <glyph glyph-name="afii57433" unicode="&#x639;" horiz-adv-x="1427" arabic-form="isolated" 
d="M1247 -338q-81 -42 -194 -64t-269 -22q-309 0 -487 152.5t-178 412.5q0 137 48 221t136 150q-41 32 -79 109.5t-38 162.5q0 198 135 321.5t353 123.5q116 0 201 -8.5t100 -10.5v-313h-10q-37 3 -121 8.5t-162 5.5q-92 0 -154.5 -53.5t-62.5 -120.5q0 -42 17 -74t44 -49
l543 136v-267l-434 -108q-116 -28 -177 -86.5t-61 -145.5q0 -95 101.5 -152t283.5 -57q123 0 255.5 20.5t201.5 47.5h8v-340z" />
    <glyph glyph-name="afii62804" unicode="&#x639;" horiz-adv-x="1384" arabic-form="final" 
d="M985 -424h-207q-139 0 -260 34.5t-208 100.5q-88 67 -137.5 165.5t-49.5 227.5q0 63 23.5 114t61.5 94q34 38 77.5 68t85.5 52l8 4q-28 22 -59.5 52t-70.5 82q-34 44 -58.5 95t-24.5 97q0 56 32 108.5t100 101.5q64 46 161.5 75.5t218.5 29.5t217 -30t161 -76
q67 -46 102.5 -102t35.5 -109q0 -92 -83.5 -176.5t-213.5 -139.5l-84 -34q31 -18 85 -34t126 -16h360v-360h-288q-71 0 -133.5 18t-111.5 44q-51 27 -98 63.5t-75 60.5l-100 84q-24 -13 -69.5 -64.5t-45.5 -96.5q0 -50 26 -84.5t70 -53.5q46 -20 99 -27t118 -7h209v-361z
M913 727q0 28 -72.5 60t-162.5 32q-95 0 -162 -34t-67 -58q0 -44 58.5 -102t94.5 -80l37 -23l53 19q91 32 156 88t65 98z" />
    <glyph glyph-name="afii62802" unicode="&#x639;" horiz-adv-x="1391" arabic-form="initial" 
d="M1290 184q-337 -95 -561.5 -139.5t-337.5 -44.5h-461v360h330q-32 30 -61 104.5t-29 137.5q0 223 148.5 366.5t383.5 143.5q115 0 242 -28.5t184 -55.5v-309h-12q-73 27 -198.5 52.5t-206.5 25.5q-118 0 -191.5 -61.5t-73.5 -143.5q0 -72 45.5 -128.5t104.5 -82.5
q169 20 366.5 65.5t327.5 75.5v-338z" />
    <glyph glyph-name="afii62803" unicode="&#x639;" horiz-adv-x="1208" arabic-form="medial" 
d="M1208 0h-276q-92 0 -180 41.5t-150 99.5q-66 -65 -152 -103t-178 -38h-342v360h346q19 0 38 5.5t26 11.5q-38 26 -83.5 65t-81.5 78q-40 43 -67.5 87t-27.5 79q0 77 48 137t126 102q69 38 162 60.5t186 22.5q90 0 181 -20.5t169 -60.5q77 -40 126.5 -100t49.5 -137
q0 -36 -29 -81t-68 -85q-35 -36 -86 -81.5t-81 -69.5q4 -6 22 -9.5t42 -3.5h280v-360zM750 552q44 32 70 54.5t26 36.5q0 23 -24 41t-61 31q-38 13 -80 19.5t-79 6.5q-86 0 -163 -29.5t-77 -66.5q0 -12 28 -37.5t68 -54.5q36 -26 80 -54t64 -38q26 13 69 39t79 52z" />
    <glyph glyph-name="afii57434" unicode="&#x63a;" horiz-adv-x="1427" arabic-form="isolated" 
d="M1247 -338q-81 -42 -194 -64t-269 -22q-309 0 -487 152.5t-178 412.5q0 137 48 221t136 150q-41 32 -79 109.5t-38 162.5q0 198 135 321.5t353 123.5q116 0 201 -8.5t100 -10.5v-313h-10q-37 3 -121 8.5t-162 5.5q-92 0 -154.5 -53.5t-62.5 -120.5q0 -42 17 -74t44 -49
l543 136v-267l-434 -108q-116 -28 -177 -86.5t-61 -145.5q0 -95 101.5 -152t283.5 -57q123 0 255.5 20.5t201.5 47.5h8v-340zM728 1468h-148v148h148v-148z" />
    <glyph glyph-name="afii62807" unicode="&#x63a;" horiz-adv-x="1384" arabic-form="final" 
d="M985 -424h-207q-139 0 -260 34.5t-208 100.5q-88 67 -137.5 165.5t-49.5 227.5q0 63 23.5 114t61.5 94q34 38 77.5 68t85.5 52l8 4q-28 22 -59.5 52t-70.5 82q-34 44 -58.5 95t-24.5 97q0 56 32 108.5t100 101.5q64 46 161.5 75.5t218.5 29.5t217 -30t161 -76
q67 -46 102.5 -102t35.5 -109q0 -92 -83.5 -176.5t-213.5 -139.5l-84 -34q31 -18 85 -34t126 -16h360v-360h-288q-71 0 -133.5 18t-111.5 44q-51 27 -98 63.5t-75 60.5l-100 84q-24 -13 -69.5 -64.5t-45.5 -96.5q0 -50 26 -84.5t70 -53.5q46 -20 99 -27t118 -7h209v-361z
M913 727q0 28 -72.5 60t-162.5 32q-95 0 -162 -34t-67 -58q0 -44 58.5 -102t94.5 -80l37 -23l53 19q91 32 156 88t65 98zM744 1317h-148v148h148v-148z" />
    <glyph glyph-name="afii62805" unicode="&#x63a;" horiz-adv-x="1391" arabic-form="initial" 
d="M1290 184q-337 -95 -561.5 -139.5t-337.5 -44.5h-461v360h330q-32 30 -61 104.5t-29 137.5q0 223 148.5 366.5t383.5 143.5q115 0 242 -28.5t184 -55.5v-309h-12q-73 27 -198.5 52.5t-206.5 25.5q-118 0 -191.5 -61.5t-73.5 -143.5q0 -72 45.5 -128.5t104.5 -82.5
q169 20 366.5 65.5t327.5 75.5v-338zM758 1354h-148v148h148v-148z" />
    <glyph glyph-name="afii62806" unicode="&#x63a;" horiz-adv-x="1208" arabic-form="medial" 
d="M1208 0h-276q-92 0 -180 41.5t-150 99.5q-66 -65 -152 -103t-178 -38h-342v360h346q19 0 38 5.5t26 11.5q-38 26 -83.5 65t-81.5 78q-40 43 -67.5 87t-27.5 79q0 77 48 137t126 102q69 38 162 60.5t186 22.5q90 0 181 -20.5t169 -60.5q77 -40 126.5 -100t49.5 -137
q0 -36 -29 -81t-68 -85q-35 -36 -86 -81.5t-81 -69.5q4 -6 22 -9.5t42 -3.5h280v-360zM750 552q44 32 70 54.5t26 36.5q0 23 -24 41t-61 31q-38 13 -80 19.5t-79 6.5q-86 0 -163 -29.5t-77 -66.5q0 -12 28 -37.5t68 -54.5q36 -26 80 -54t64 -38q26 13 69 39t79 52zM666 1249
h-148v148h148v-148z" />
    <glyph glyph-name="afii57441" unicode="&#x641;" horiz-adv-x="2095" arabic-form="isolated" 
d="M1972 590q0 -158 -79 -271.5t-204 -183.5q-128 -73 -290.5 -108t-339.5 -35h-45q-448 0 -669.5 148.5t-221.5 441.5q0 83 13 182.5t14 107.5h274v-4q-3 -15 -14 -118.5t-11 -155.5q0 -114 150.5 -178t464.5 -64h22q174 0 287 11t182 32q66 20 103 47.5t64 67.5
q-12 0 -27 -2t-40 -4q-24 -2 -52.5 -4t-51.5 -2q-185 0 -290 101t-105 263q0 178 108.5 300t253.5 122q204 0 354 -189.5t150 -504.5zM1677 772q-12 81 -72.5 146t-115.5 65q-48 0 -77.5 -35.5t-29.5 -81.5q0 -45 36 -75.5t95 -30.5q38 0 95.5 3.5t68.5 8.5zM1455 1526h-148
v148h148v-148z" />
    <glyph glyph-name="afii62810" unicode="&#x641;" horiz-adv-x="2154" arabic-form="final" 
d="M2154 0h-264q-93 0 -175 25.5t-150 72.5q-74 -47 -159.5 -72.5t-170.5 -25.5h-291q-393 0 -605 147.5t-212 442.5q0 99 15 188.5t16 95.5h272v-8q-5 -22 -14.5 -105t-9.5 -159q0 -113 146 -177.5t392 -64.5h322q-50 38 -96 116t-46 151q0 158 124.5 269.5t310.5 111.5
q185 0 312.5 -111t127.5 -279q0 -78 -54 -157t-85 -101h294v-360zM1647 468q25 30 39 56.5t14 61.5q0 61 -44 99t-97 38q-57 0 -96.5 -39t-39.5 -98q0 -28 16 -59.5t39 -58.5q18 -22 45 -43t40 -24q17 5 41.5 25t42.5 42zM1631 1249h-148v148h148v-148z" />
    <glyph glyph-name="afii62808" unicode="&#x641;" horiz-adv-x="1110" arabic-form="initial" 
d="M827 1116q74 -92 117 -222t43 -296q0 -140 -62.5 -253t-158.5 -188q-99 -77 -215 -117t-227 -40h-394v360h371q135 0 237 41t149 117q-20 -3 -72 -7.5t-99 -4.5q-93 0 -166.5 26.5t-126.5 78.5q-50 49 -76 115t-26 144q0 171 104.5 296.5t257.5 125.5q94 0 182 -43.5
t162 -132.5zM692 780q-12 81 -72.5 146t-115.5 65q-48 0 -77.5 -35.5t-29.5 -81.5q0 -45 36 -75.5t95 -30.5q38 0 95.5 3.5t68.5 8.5zM509 1533h-148v148h148v-148z" />
    <glyph glyph-name="afii62809" unicode="&#x641;" horiz-adv-x="1171" arabic-form="medial" 
d="M1171 0h-139q-71 0 -135.5 15.5t-121.5 39.5q-57 25 -102.5 51t-88.5 54q-45 -28 -85 -53t-105 -52t-119 -41t-138 -14h-207v360h133q83 0 143.5 10t82.5 17q-53 48 -84 110t-31 146q0 83 27.5 148.5t81.5 117.5q52 49 129.5 77t171.5 28q192 0 301.5 -108t109.5 -281
q0 -69 -33 -130.5t-85 -107.5q14 -5 28 -7t45 -7q37 -5 72 -9t84 -4h65v-360zM719 612q0 45 -37.5 80t-95.5 35q-66 0 -100.5 -35.5t-34.5 -79.5q0 -38 47.5 -75t89.5 -54q52 24 91.5 59.5t39.5 69.5zM650 1255h-148v148h148v-148z" />
    <glyph glyph-name="afii57442" unicode="&#x642;" horiz-adv-x="2023" arabic-form="isolated" 
d="M1901 455q0 -204 -76 -359.5t-206 -256.5q-131 -102 -302.5 -154t-374.5 -52q-420 0 -619.5 156.5t-199.5 434.5q0 110 16.5 196t17.5 94h267v-4q-3 -15 -14 -97t-11 -177q0 -114 142.5 -177t402.5 -63q141 0 262 34t206 89q90 57 136.5 122.5t51.5 133.5q-12 -2 -26 -3
t-41 -4q-23 -2 -52 -4t-52 -2q-188 0 -291.5 105.5t-103.5 259.5q0 167 104 294.5t259 127.5q91 0 181 -44.5t162 -132.5q75 -92 118 -222t43 -295zM1606 637q-13 81 -73.5 146t-115.5 65q-47 0 -76.5 -35.5t-29.5 -81.5q0 -45 35.5 -75.5t95.5 -30.5q38 0 96.5 4t67.5 8z
M1573 1391h-148v147h148v-147zM1305 1391h-148v147h148v-147z" />
    <glyph glyph-name="afii62813" unicode="&#x642;" horiz-adv-x="2165" arabic-form="final" 
d="M1702 383q-13 135 -63.5 215t-102.5 80q-55 0 -92 -43t-37 -103t88 -101t207 -48zM1946 16q-63 -137 -154 -223.5t-217 -134.5q-120 -46 -275.5 -64t-357.5 -18q-403 0 -611 151t-208 439q0 115 16.5 198t18.5 93h266v-8q-4 -21 -14.5 -101t-10.5 -170q0 -113 142 -176
t403 -63q186 0 320 20t218 44q90 27 123.5 44t39.5 21q-250 28 -382.5 155t-132.5 303q0 184 118.5 318.5t285.5 134.5q179 0 308 -162t153 -450q10 -2 70.5 -4.5t91.5 -2.5h8v-360h-4q-55 0 -123 6t-92 10zM1391 1221h-148v148h148v-148zM1659 1221h-148v148h148v-148z" />
    <glyph glyph-name="afii62811" unicode="&#x642;" horiz-adv-x="1110" arabic-form="initial" 
d="M827 1116q74 -92 117 -222t43 -296q0 -140 -62.5 -253t-158.5 -188q-99 -77 -215 -117t-227 -40h-394v360h371q135 0 237 41t149 117q-20 -3 -72 -7.5t-99 -4.5q-93 0 -166.5 26.5t-126.5 78.5q-50 49 -76 115t-26 144q0 171 104.5 296.5t257.5 125.5q94 0 182 -43.5
t162 -132.5zM692 780q-12 81 -72.5 146t-115.5 65q-48 0 -77.5 -35.5t-29.5 -81.5q0 -45 36 -75.5t95 -30.5q38 0 95.5 3.5t68.5 8.5zM367 1534h-148v148h148v-148zM635 1534h-148v148h148v-148z" />
    <glyph glyph-name="afii62812" unicode="&#x642;" horiz-adv-x="1171" arabic-form="medial" 
d="M1171 0h-139q-71 0 -135.5 15.5t-121.5 39.5q-57 25 -102.5 51t-88.5 54q-45 -28 -85 -53t-105 -52t-119 -41t-138 -14h-207v360h133q83 0 143.5 10t82.5 17q-53 48 -84 110t-31 146q0 83 27.5 148.5t81.5 117.5q52 49 129.5 77t171.5 28q192 0 301.5 -108t109.5 -281
q0 -69 -33 -130.5t-85 -107.5q14 -5 28 -7t45 -7q37 -5 72 -9t84 -4h65v-360zM719 612q0 45 -37.5 80t-95.5 35q-66 0 -100.5 -35.5t-34.5 -79.5q0 -38 47.5 -75t89.5 -54q52 24 91.5 59.5t39.5 69.5zM510 1202h-148v148h148v-148zM778 1202h-148v148h148v-148z" />
    <glyph glyph-name="afii57443" unicode="&#x643;" horiz-adv-x="1749" arabic-form="isolated" 
d="M1465 162.5q-120 -162.5 -316 -162.5h-563q-99 0 -183 17.5t-144 59.5q-63 43 -99.5 120t-36.5 200q0 74 7 135t9 72h271v-8q-1 -5 -6 -53.5t-5 -81.5q0 -49 46.5 -75t140.5 -26h518q90 0 146.5 64t56.5 174v956h278v-956q0 -273 -120 -435.5zM1006 903
q0 -85 -101 -135.5t-262 -50.5v94q116 0 193 21t77 61q0 18 -19.5 30t-55.5 21l-76 19q-53 13 -85 45.5t-32 87.5q0 70 69.5 113.5t201.5 43.5v-90q-93 0 -138 -17.5t-45 -47.5q0 -18 20.5 -31t55.5 -22l84 -21q45 -11 79 -37.5t34 -83.5z" />
    <glyph glyph-name="afii62816" unicode="&#x643;" horiz-adv-x="1843" arabic-form="final" 
d="M1745 0q-107 0 -186.5 45t-112.5 102q-33 -58 -111 -102.5t-186 -44.5h-563q-99 0 -183 17.5t-144 59.5q-63 43 -99.5 120t-36.5 200q0 74 7 135t9 72h271v-8q-1 -5 -6 -53.5t-5 -81.5q0 -49 46.5 -75t140.5 -26h518q90 0 146.5 64t56.5 174v956h278v-956
q0 -112 56.5 -175t148.5 -63h53v-360h-98zM1006 903q0 -85 -101 -135.5t-262 -50.5v94q116 0 193 21t77 61q0 18 -19.5 30t-55.5 21l-76 19q-53 12 -85 45t-32 88q0 70 69.5 113.5t201.5 43.5v-90q-93 0 -138 -17.5t-45 -47.5q0 -18 20 -31.5t56 -21.5l84 -21q45 -10 79 -37
t34 -84zM1749 0z" />
    <glyph glyph-name="afii57410" unicode="&#x643;" horiz-adv-x="1139" arabic-form="initial" 
d="M1079 1288l-594 -194q-53 -17 -76.5 -34.5t-23.5 -31.5q0 -18 35.5 -46t87.5 -62l256 -168q106 -70 158.5 -149.5t52.5 -188.5q0 -186 -118.5 -300t-301.5 -114h-625v360h633q69 0 110.5 24.5t41.5 59.5q0 29 -32.5 63t-107.5 85l-282 190q-125 82 -167 139t-42 123
q0 83 71 156t203 121l721 266v-299z" />
    <glyph glyph-name="afii62815" unicode="&#x643;" horiz-adv-x="1225" arabic-form="medial" 
d="M1225 0h-156q-77 0 -142 22t-108 58q-56 -40 -118 -60t-146 -20h-625v360h633q69 0 110.5 24.5t41.5 59.5q0 29 -32.5 63t-107.5 85l-282 190q-125 82 -167 139t-42 123q0 83 71 156t203 121l721 266v-299l-594 -194q-53 -17 -76.5 -34.5t-23.5 -31.5q0 -18 35.5 -46
t87.5 -62l256 -168q106 -70 158.5 -149.5t52.5 -188.5q29 -27 62.5 -40.5t74.5 -13.5h113v-360zM1139 0z" />
    <glyph glyph-name="afii57444" unicode="&#x644;" horiz-adv-x="1579" arabic-form="isolated" 
d="M1415 457q0 -94 -45.5 -179t-131.5 -145q-90 -63 -214 -98t-299 -35q-328 0 -465 119t-137 405q0 107 14 214t17 124h272v-8q-3 -22 -15 -132.5t-12 -195.5q0 -92 80 -129t248 -37q202 0 307 49.5t105 137.5v1007h278z" />
    <glyph glyph-name="afii62819" unicode="&#x644;" horiz-adv-x="1675" arabic-form="final" 
d="M1675 0h-98q-58 0 -102.5 11t-59.5 22q-19 -219 -196 -338t-494 -119q-328 0 -465 119t-137 405q0 107 15 218.5t16 119.5h272v-8q-3 -21 -15 -133t-12 -195q0 -91 80 -128t248 -37q201 0 306.5 49t105.5 137v1431h278v-956q0 -106 54.5 -172t150.5 -66h53v-360zM1579 0z
" />
    <glyph glyph-name="afii62817" unicode="&#x644;" horiz-adv-x="698" arabic-form="initial" 
d="M537 598q0 -263 -116.5 -430.5t-322.5 -167.5h-168v360h123q42 0 79.5 14.5t64.5 43.5q30 32 45.5 73.5t15.5 106.5v956h279v-956z" />
    <glyph glyph-name="afii62818" unicode="&#x644;" horiz-adv-x="797" arabic-form="medial" 
d="M797 0h-103q-106 0 -186 45t-113 102q-42 -68 -118.5 -107.5t-178.5 -39.5h-168v360h123q89 0 146 61.5t57 176.5v956h279v-956q0 -107 54 -172.5t150 -65.5h58v-360zM698 0z" />
    <glyph glyph-name="afii57445" unicode="&#x645;" horiz-adv-x="1386" arabic-form="isolated" 
d="M1113 812q69 -66 110 -157.5t41 -212.5q0 -135 -43 -224.5t-106 -140.5q-63 -50 -133.5 -71.5t-133.5 -21.5q-83 0 -166.5 31t-149.5 89q-94 -233 -257 -358.5t-404 -169.5v358q109 21 194 53.5t144 95.5q61 64 100 165.5t58 269.5q23 207 121.5 317.5t283.5 110.5
q97 0 184 -34t157 -100zM983 467q0 72 -59.5 124t-137.5 52q-60 0 -100.5 -42.5t-40.5 -102.5q0 -62 55.5 -109t135.5 -47q66 0 106.5 34t40.5 91z" />
    <glyph glyph-name="afii62822" unicode="&#x645;" horiz-adv-x="1511" arabic-form="final" 
d="M1511 0h-20q-69 0 -145 52t-144 136q-52 -95 -144.5 -149.5t-209.5 -54.5q-83 0 -166.5 31t-149.5 89q-94 -233 -257 -358.5t-404 -169.5v358q109 21 194 53.5t144 95.5q61 64 100 165.5t58 269.5q23 208 121.5 317t283.5 111q131 2 239.5 -57.5t190.5 -206.5
q39 -70 80 -135.5t73 -102.5q39 -44 78 -64t63 -20h15v-360zM983 467q0 72 -59.5 124t-137.5 52q-60 0 -100.5 -42.5t-40.5 -102.5q0 -62 55.5 -109t135.5 -47q66 0 106.5 34t40.5 91zM1386 0zM1264 442z" />
    <glyph glyph-name="afii62820" unicode="&#x645;" horiz-adv-x="1221" arabic-form="initial" 
d="M1098 426q0 -193 -118.5 -317.5t-295.5 -124.5q-88 0 -168 30.5t-143 85.5q-60 -50 -128 -75t-167 -25h-148v360h152q67 0 92 47.5t29 110.5q10 189 120 308.5t285 119.5q96 0 185 -37t154 -102q68 -66 109.5 -163t41.5 -218zM819 467q0 73 -60 124.5t-136 51.5
q-61 0 -101.5 -42.5t-40.5 -102.5q0 -62 55.5 -109t135.5 -47q66 0 106.5 34t40.5 91z" />
    <glyph glyph-name="afii62821" unicode="&#x645;" horiz-adv-x="1350" arabic-form="medial" 
d="M1350 0h-2q-90 0 -165.5 51t-144.5 137q-52 -95 -144.5 -149.5t-209.5 -54.5q-88 0 -168 30.5t-143 85.5q-60 -50 -128 -75t-167 -25h-148v360h152q55 0 84.5 36.5t36.5 121.5q10 189 120 308.5t285 119.5q149 0 252.5 -65.5t177.5 -198.5q39 -70 80 -135.5t73 -102.5
q39 -44 78 -64t83 -20h-2v-360zM819 467q0 73 -60 124.5t-136 51.5q-61 0 -101.5 -42.5t-40.5 -102.5q0 -62 55.5 -109t135.5 -47q66 0 106.5 34t40.5 91zM1221 0zM1098 426z" />
    <glyph glyph-name="afii57446" unicode="&#x646;" horiz-adv-x="1591" arabic-form="isolated" 
d="M1468 633q0 -165 -53.5 -286t-144.5 -197q-93 -77 -213 -113.5t-260 -36.5q-136 0 -260.5 37t-214.5 113q-93 78 -146 198t-53 285q0 104 17.5 242t19.5 153h282v-8q-5 -18 -24 -143t-19 -246q0 -125 123.5 -198t270.5 -73q149 0 274 72t125 199q0 122 -17 238.5
t-26 150.5v8h278q7 -36 24 -175t17 -220zM870 1202h-147v148h147v-148z" />
    <glyph glyph-name="afii62825" unicode="&#x646;" horiz-adv-x="1729" arabic-form="final" 
d="M1730 0h-188q-20 0 -41 2.5t-47 9.5q-44 -204 -220 -320t-437 -116q-145 0 -269 33.5t-214 108.5q-91 76 -141 196t-50 291q0 136 17 247t20 123h282v-8q-13 -50 -28 -163t-15 -201q0 -129 103 -196.5t291 -67.5q186 0 292.5 64.5t106.5 199.5q0 126 -10 226t-21 138v8
h309q0 -114 33 -164.5t84 -50.5h143v-360zM870 817h-147v148h147v-148zM1591 0zM1468 253z" />
    <glyph glyph-name="afii62823" unicode="&#x646;" horiz-adv-x="698" arabic-form="initial" 
d="M537 598q0 -275 -120.5 -436.5t-318.5 -161.5h-168v360h123q93 0 149 63t56 175v293h279v-293zM414 1135h-148v148h148v-148z" />
    <glyph glyph-name="afii62824" unicode="&#x646;" horiz-adv-x="793" arabic-form="medial" 
d="M793 0h-99q-106 0 -186 45t-113 102q-42 -68 -118.5 -107.5t-178.5 -39.5h-168v360h123q89 0 146 61.5t57 176.5v123h279v-123q0 -107 54 -172.5t150 -65.5h54v-360zM698 0zM465 963h-148v148h148v-148z" />
    <glyph glyph-name="afii57447" unicode="&#x647;" horiz-adv-x="1114" arabic-form="isolated" 
d="M1036 453q0 -210 -135.5 -341.5t-339.5 -131.5q-208 0 -340.5 130.5t-132.5 342.5q0 146 75.5 259t209.5 195l37 23l-134 127h322l180 -158q130 -112 194 -219.5t64 -226.5zM768 500q0 64 -43 124.5t-129 135.5l-16 14l-37 -22q-86 -52 -132 -112.5t-46 -139.5
q0 -63 54 -111.5t144 -48.5q88 0 146.5 50.5t58.5 109.5z" />
    <glyph glyph-name="afii62828" unicode="&#x647;" horiz-adv-x="1362" arabic-form="final" 
d="M1362 0h-96q-92 0 -162 32.5t-121 86.5t-83.5 121t-53.5 143q-59 -53 -149.5 -86t-168.5 -33q-189 0 -302 115t-113 297q0 114 51 203.5t147 153.5q95 62 230.5 96t302.5 42l260 13v-586q0 -114 58 -176t145 -62h55v-360zM825 645v240q-193 -17 -299 -64t-106 -143
q0 -46 38 -77.5t95 -31.5q77 0 155 25t117 51z" />
    <glyph glyph-name="afii57470" unicode="&#x647;" horiz-adv-x="1593" arabic-form="initial" 
d="M416 1360h237q270 0 543.5 -290.5t273.5 -606.5q0 -217 -125 -340t-344 -123h-1071v360h263q-23 47 -23 119q0 201 112.5 321t299.5 120q186 0 299.5 -120.5t113.5 -320.5q0 -61 -20 -119h117q48 0 75 27.5t27 73.5q0 244 -177.5 421t-361.5 177h-239v301zM584 360
q62 0 98.5 32.5t36.5 86.5q0 57 -38 98t-99 41q-63 0 -99.5 -39.5t-36.5 -99.5q0 -53 37 -86t101 -33z" />
    <glyph glyph-name="afii62827" unicode="&#x6be;" horiz-adv-x="1186" arabic-form="final" 
d="M1186 0h-10q-177 0 -328 -111t-254 -313h-397v447q-117 -23 -201 -23h-66v360h90q81 0 177 7v145q0 215 104.5 346t263.5 131q145 0 247.5 -104t102.5 -260q0 -151 -124.5 -292t-323.5 -222v-215q138 213 328 338.5t374 125.5h17v-360zM467 416q84 22 131 77t47 123
q0 93 -72 93q-50 0 -78 -50.5t-28 -138.5v-104z" />
    <glyph glyph-name="afii57448" unicode="&#x648;" horiz-adv-x="1083" arabic-form="isolated" 
d="M961 274q0 -204 -97.5 -351.5t-284.5 -228.5q-146 -65 -311.5 -91.5t-359.5 -26.5v344q85 0 218 10t221 30q104 23 188 63t120 104q-10 -2 -55.5 -8t-54.5 -6q-205 0 -328 117.5t-123 295.5q0 190 121.5 321.5t282.5 131.5q193 0 328 -194t135 -511zM666 449
q-19 97 -60.5 152.5t-95.5 55.5t-96.5 -36.5t-42.5 -88.5q0 -37 40 -67.5t121 -30.5q42 0 83 5.5t51 9.5z" />
    <glyph glyph-name="afii62829" unicode="&#x648;" horiz-adv-x="1157" arabic-form="final" 
d="M694 383q-13 136 -63 215.5t-103 79.5q-54 0 -91.5 -43t-37.5 -103t88 -101t207 -48zM1157 0h-4q-55 0 -127 7t-88 9q-63 -136 -183 -223.5t-262 -134.5t-285.5 -64.5t-270.5 -17.5v344q186 0 322 23.5t215 50.5q91 31 123.5 50.5t39.5 23.5q-250 28 -382 154.5
t-132 303.5q0 186 118.5 319.5t284.5 133.5q186 0 314 -171t147 -441q17 -2 76.5 -4.5t85.5 -2.5h8v-360zM961 274zM1083 0z" />
    <glyph glyph-name="afii57449" unicode="&#x649;" horiz-adv-x="1991" arabic-form="isolated" 
d="M1860 932h-9q-54 29 -176 53.5t-243 24.5q-102 0 -158.5 -24.5t-56.5 -65.5q0 -36 106 -68.5t222 -70.5q55 -19 116 -47t109 -63q45 -34 73.5 -79t28.5 -100q0 -234 -269 -366t-782 -132q-354 0 -527 127t-173 403q0 125 14.5 225.5t16.5 112.5h272v-18
q-4 -16 -15.5 -122t-11.5 -196q0 -82 85.5 -126t340.5 -44q381 0 575.5 30.5t194.5 102.5q0 35 -75.5 64.5t-223.5 69.5q-65 18 -136.5 49t-116.5 65q-45 33 -74 80t-29 105q0 171 138 288t358 117q128 0 241.5 -22t184.5 -50v-323z" />
    <glyph glyph-name="afii62830" unicode="&#x649;" horiz-adv-x="2247" arabic-form="final" 
d="M2247 0h-58q-53 0 -102 28t-95 72q-46 46 -91.5 106t-84.5 115q-42 60 -83.5 118t-83.5 103q-43 47 -85.5 74t-86.5 27q-52 0 -90.5 -33t-38.5 -63q0 -32 58.5 -75t111.5 -82q84 -61 127 -119t43 -115q0 -223 -227 -353.5t-638 -130.5q-364 0 -532 132.5t-168 402.5
q0 110 11.5 207.5t19.5 126.5h274v-11q-4 -22 -15.5 -112.5t-11.5 -208.5q0 -89 91 -132.5t333 -43.5q292 0 438 31.5t146 93.5q0 45 -55.5 87t-114.5 82q-65 44 -117.5 97.5t-52.5 124.5q0 144 119.5 255t288.5 111q68 0 124.5 -25t103.5 -62q54 -42 97 -93t80 -98
q40 -51 78 -101.5t74 -88.5q39 -41 74 -64t77 -23h62v-360z" />
    <glyph glyph-name="afii57450" unicode="&#x64a;" horiz-adv-x="1991" arabic-form="isolated" 
d="M1860 932h-9q-54 29 -176 53.5t-243 24.5q-102 0 -158.5 -24.5t-56.5 -65.5q0 -36 106 -68.5t222 -70.5q55 -19 116 -47t109 -63q45 -34 73.5 -79t28.5 -100q0 -234 -269 -366t-782 -132q-354 0 -527 127t-173 403q0 125 14.5 225.5t16.5 112.5h272v-18
q-4 -16 -15.5 -122t-11.5 -196q0 -82 85.5 -126t340.5 -44q381 0 575.5 30.5t194.5 102.5q0 35 -75.5 64.5t-223.5 69.5q-65 18 -136.5 49t-116.5 65q-45 33 -74 80t-29 105q0 171 138 288t358 117q128 0 241.5 -22t184.5 -50v-323zM791 -291h-148v148h148v-148zM1059 -291
h-148v148h148v-148z" />
    <glyph glyph-name="afii62833" unicode="&#x64a;" horiz-adv-x="2345" arabic-form="final" 
d="M2345 0h-57q-66 0 -124 35t-110 94q-47 53 -97.5 132t-92.5 150q-38 65 -89.5 149.5t-91.5 133.5q-49 60 -98 94.5t-108 34.5q-52 0 -90.5 -33t-38.5 -63q0 -32 59.5 -78t102.5 -79q96 -77 128.5 -130.5t32.5 -103.5q0 -96 -47.5 -186t-147.5 -154q-107 -69 -268.5 -106
t-384.5 -37q-368 0 -534 132t-166 402q0 131 13 224.5t18 109.5h274v-10q-3 -15 -15 -108.5t-12 -213.5q0 -54 30.5 -88.5t85.5 -53.5t132.5 -26.5t175.5 -7.5q292 0 430 31.5t138 93.5q0 41 -44 80t-118 90q-88 61 -125 113t-37 108q0 69 29.5 134t84.5 118q51 50 129 82.5
t165 32.5q78 0 144.5 -32t122.5 -83q55 -50 106 -118t94 -135q35 -54 82.5 -129t86.5 -124q44 -57 86 -86t85 -29h61v-360zM561 -276h148v-148h-148v148zM829 -276h148v-148h-148v148z" />
    <glyph glyph-name="afii62831" unicode="&#x64a;" horiz-adv-x="698" arabic-form="initial" 
d="M537 598q0 -275 -120.5 -436.5t-318.5 -161.5h-168v360h123q93 0 149 63t56 175v293h279v-293zM130 -295h-148v148h148v-148zM398 -295h-148v148h148v-148z" />
    <glyph glyph-name="afii62832" unicode="&#x6cc;" horiz-adv-x="793" arabic-form="medial" 
d="M793 0h-99q-106 0 -186 45t-113 102q-42 -68 -118.5 -107.5t-178.5 -39.5h-168v360h123q89 0 146 61.5t57 176.5v123h279v-123q0 -107 54 -172.5t150 -65.5h54v-360zM698 0zM263 -295h-148v148h148v-148zM531 -295h-148v148h148v-148z" />
    <glyph glyph-name="uniFBA4" unicode="&#x6c0;" horiz-adv-x="1114" arabic-form="isolated" 
d="M1036 453q0 -210 -135.5 -341.5t-339.5 -131.5q-208 0 -340.5 130.5t-132.5 342.5q0 146 75.5 259t209.5 195l37 23l-134 127h322l180 -158q130 -112 194 -219.5t64 -226.5zM768 500q0 64 -43 124.5t-129 135.5l-16 14l-37 -22q-86 -52 -132 -112.5t-46 -139.5
q0 -63 54 -111.5t144 -48.5q88 0 146.5 50.5t58.5 109.5zM449 1267h-336v94h74q-24 13 -39.5 42t-15.5 60q0 64 47 112t127 48q53 0 78.5 -6t35.5 -10v-101h-6q-14 6 -47.5 14.5t-58.5 8.5q-44 0 -66 -18t-22 -48q0 -45 46 -73.5t109 -28.5h74v-94z" />
    <glyph glyph-name="uniFBA5" unicode="&#x6c0;" horiz-adv-x="1362" arabic-form="final" 
d="M1362 0h-96q-92 0 -162 32.5t-121 86.5t-83.5 121t-53.5 143q-59 -53 -149.5 -86t-168.5 -33q-189 0 -302 115t-113 297q0 114 51 203.5t147 153.5q95 62 230.5 96t302.5 42l260 13v-586q0 -114 58 -176t145 -62h55v-360zM825 645v240q-193 -17 -299 -64t-106 -143
q0 -46 38 -77.5t95 -31.5q77 0 155 25t117 51zM514 1317h-336v94h74q-24 13 -39.5 42t-15.5 60q0 64 47 112t127 48q53 0 78.5 -6t35.5 -10v-101h-6q-14 6 -47.5 14.5t-58.5 8.5q-44 0 -66 -18t-22 -48q0 -45 46 -73.5t109 -28.5h74v-94z" />
    <glyph glyph-name="uniFBFE" unicode="&#x6cc;" horiz-adv-x="698" arabic-form="initial" 
d="M537 598q0 -275 -120.5 -436.5t-318.5 -161.5h-168v360h123q93 0 149 63t56 175v293h279v-293zM214 -293h-148v148h148v-148zM482 -293h-148v148h148v-148z" />
    <glyph glyph-name="uni0679" unicode="&#x679;" horiz-adv-x="1901" arabic-form="isolated" 
d="M1772 582q0 -281 -203 -435.5t-621 -154.5q-417 0 -618 157t-201 433q0 96 14 184t17 100h274v-10q-6 -30 -16 -114.5t-10 -147.5q0 -114 140.5 -177t401.5 -63q258 0 400.5 63t142.5 177q0 79 -11 156t-16 106v10h273q7 -29 20 -123t13 -161zM1243 1181q0 -89 -88 -133
q-67 -33 -160 -33h-289v92h82q21 16 21 24v500h83v-397q104 113 190 113q71 0 116 -47t45 -119zM1159 1179q0 32 -22.5 54.5t-55.5 22.5q-72 0 -179 -149h48q209 0 209 72z" />
    <glyph glyph-name="uniFB67" unicode="&#x679;" horiz-adv-x="2107" arabic-form="final" 
d="M2107 0h-159q-78 0 -158 43.5t-117 106.5q-40 -64 -121.5 -107t-183.5 -43h-424q-405 0 -612 151.5t-207 438.5q0 96 16 183t21 101h266v-8q-6 -25 -16.5 -109t-10.5 -155q0 -113 142 -177.5t403 -64.5h249h128q91 0 153 38.5t62 115.5q0 84 -5 134.5t-7 62.5v10h270
q6 -24 14.5 -89.5t8.5 -125.5q0 -58 43 -102t104 -44h141v-360zM1901 0zM1303 1181q0 -89 -88 -133q-67 -33 -160 -33h-289v92h82q21 16 21 24v500h83v-397q104 113 190 113q71 0 116 -47t45 -119zM1219 1179q0 32 -22.5 54.5t-55.5 22.5q-72 0 -179 -149h48q209 0 209 72z
" />
    <glyph glyph-name="uniFB68" unicode="&#x679;" horiz-adv-x="698" arabic-form="initial" 
d="M537 598q0 -275 -120.5 -436.5t-318.5 -161.5h-168v360h123q93 0 149 63t56 175v293h279v-293zM581 1181q0 -89 -88 -133q-67 -33 -160 -33h-289v92h82q21 16 21 24v500h83v-397q104 113 190 113q71 0 116 -47t45 -119zM497 1179q0 32 -22.5 54.5t-55.5 22.5
q-72 0 -179 -149h48q209 0 209 72z" />
    <glyph glyph-name="uniFB69" unicode="&#x679;" horiz-adv-x="793" arabic-form="medial" 
d="M793 0h-99q-106 0 -186 45t-113 102q-42 -68 -118.5 -107.5t-178.5 -39.5h-168v360h123q89 0 146 61.5t57 176.5v123h279v-123q0 -107 54 -172.5t150 -65.5h54v-360zM698 0zM641 1181q0 -89 -88 -133q-67 -33 -160 -33h-289v92h82q21 16 21 24v500h83v-397
q104 113 190 113q71 0 116 -47t45 -119zM557 1179q0 32 -22.5 54.5t-55.5 22.5q-72 0 -179 -149h48q209 0 209 72z" />
    <glyph glyph-name="uni0688" unicode="&#x688;" horiz-adv-x="1114" arabic-form="isolated" 
d="M768 822q106 -86 179 -186.5t73 -201.5q0 -207 -124.5 -320.5t-334.5 -113.5h-481v360h479q100 0 142 20.5t42 59.5q0 42 -32.5 84.5t-91.5 86.5q-59 45 -136.5 91t-183.5 105v323h8q96 -58 229.5 -142.5t231.5 -165.5zM761 1481q0 -89 -88 -133q-67 -33 -160 -33h-289
v92h82q21 16 21 24v500h83v-397q104 113 190 113q71 0 116 -47t45 -119zM677 1479q0 32 -22.5 54.5t-55.5 22.5q-72 0 -179 -149h48q209 0 209 72z" />
    <glyph glyph-name="uniFB89" unicode="&#x688;" horiz-adv-x="1178" arabic-form="final" 
d="M1178 0h-191q-96 0 -160 34.5t-100 104.5q-45 -77 -116.5 -108t-164.5 -31h-344v360h355q75 0 123.5 26.5t48.5 59.5q0 9 -4.5 27.5t-10.5 36.5l-188 637h311l156 -539q14 -48 33.5 -101.5t35.5 -79.5q19 -32 44.5 -49.5t62.5 -17.5h109v-360zM1114 0zM861 1481
q0 -89 -88 -133q-67 -33 -160 -33h-289v92h82q21 16 21 24v500h83v-397q104 113 190 113q71 0 116 -47t45 -119zM777 1479q0 32 -22.5 54.5t-55.5 22.5q-72 0 -179 -149h48q209 0 209 72z" />
    <glyph glyph-name="uni0691" unicode="&#x691;" horiz-adv-x="946" arabic-form="isolated" 
d="M829 299q0 -184 -82 -330t-255 -246q-135 -77 -284.5 -112t-299.5 -35v363q93 0 213.5 17.5t206.5 52.5q99 41 158 103.5t59 153.5q0 109 -46 231.5t-83 180.5v12h293q21 -26 70.5 -146t49.5 -245zM801 1181q0 -89 -88 -133q-67 -33 -160 -33h-289v92h82q21 16 21 24v500
h83v-397q104 113 190 113q71 0 116 -47t45 -119zM717 1179q0 32 -22.5 54.5t-55.5 22.5q-72 0 -179 -149h48q209 0 209 72z" />
    <glyph glyph-name="uniFB8D" unicode="&#x691;" horiz-adv-x="1042" arabic-form="final" 
d="M1042 0h-98q-38 0 -88 12t-76 27q-56 -136 -160.5 -225.5t-228.5 -141.5q-126 -53 -252 -74.5t-231 -21.5v363q93 0 213.5 17.5t206.5 52.5q99 41 158 103.5t59 153.5q0 67 -18 138t-40 126q-25 61 -44.5 98.5t-26.5 49.5v12h293q21 -37 50.5 -101t39.5 -100
q17 -58 63 -93.5t125 -35.5h55v-360zM946 0zM829 299zM841 1181q0 -89 -88 -133q-67 -33 -160 -33h-289v92h82q21 16 21 24v500h83v-397q104 113 190 113q71 0 116 -47t45 -119zM757 1179q0 32 -22.5 54.5t-55.5 22.5q-72 0 -179 -149h48q209 0 209 72z" />
    <glyph glyph-name="uni06BA" unicode="&#x6ba;" horiz-adv-x="1591" arabic-form="isolated" 
d="M1468 633q0 -165 -53.5 -286t-144.5 -197q-93 -77 -213 -113.5t-260 -36.5q-136 0 -260.5 37t-214.5 113q-93 78 -146 198t-53 285q0 104 17.5 242t19.5 153h282v-8q-5 -18 -24 -143t-19 -246q0 -125 123.5 -198t270.5 -73q149 0 274 72t125 199q0 122 -17 238.5
t-26 150.5v8h278q7 -36 24 -175t17 -220z" />
    <glyph glyph-name="uniFB9F" unicode="&#x6ba;" horiz-adv-x="1729" arabic-form="final" 
d="M1728 0h-186q-20 0 -41 2.5t-47 9.5q-44 -204 -220 -320t-437 -116q-145 0 -269 33.5t-214 108.5q-91 76 -141 196t-50 291q0 136 17 247t20 123h282v-8q-13 -50 -28 -163t-15 -201q0 -129 103 -196.5t291 -67.5q186 0 292.5 64.5t106.5 199.5q0 126 -10 226t-21 138v8
h309q0 -114 33 -164.5t84 -50.5h141v-360zM1591 0zM1468 253z" />
    <glyph glyph-name="uni06C1" unicode="&#x6c1;" horiz-adv-x="1066" arabic-form="final" 
d="M1066 0q-229 0 -280 206q-20 80 -40 114q-33 55 -92 55q-153 0 -244 -551h-340v10q119 415 211 588q154 289 371 289t293 -242q21 -67 48 -88t73 -21v-360z" />
    <glyph glyph-name="uniFBA8" unicode="&#x6c1;" horiz-adv-x="698" arabic-form="initial" 
d="M537 598q0 -240 -97 -402q-118 -196 -342 -196h-168v360h123q101 0 155 70q50 64 50 168v293h279v-293zM302 -311h-175v175q0 136 175 136v-59q-112 0 -112 -77h112v-175z" />
    <glyph glyph-name="uniFBA9" unicode="&#x6c1;" horiz-adv-x="988" arabic-form="medial" 
d="M988 0q-68 0 -152.5 94t-129.5 94q-77 0 -121 -72q-49 -80 -88 -216h-245q-10 63 -25 201q-5 -14 -23 -43q-28 -33 -49 -44q-27 -14 -95 -14h-130v360h122q78 0 123 117l92 240h251l-64 -201q-28 -87 -36 -216q-4 -61 10 -166q36 131 96 225q85 133 190 133
q80 0 165.5 -66t108.5 -66v-360zM459 -380h-175v125q0 65 44 92q39 24 131 24v-59q-62 0 -84 -9q-28 -12 -28 -48h112v-125z" />
    <glyph glyph-name="uni06D2" unicode="&#x6d2;" horiz-adv-x="1867" arabic-form="isolated" 
d="M1867 -420h-1367q-198 0 -337 98q-144 100 -144 251q0 154 92 241q63 59 218 116q192 71 257 108q94 54 251 206q117 112 188 112q94 0 189 -172v-360q-88 163 -171 163q-36 0 -120 -65q-121 -93 -176 -125q-66 -38 -242 -91q-130 -38 -130 -71q0 -51 123 -51h1369v-360z
" />
    <glyph glyph-name="uniFBAF" unicode="&#x6d2;" horiz-adv-x="1867" arabic-form="final" 
d="M1867 -420h-1367q-481 0 -481 309q0 126 105 222q78 69 270 135q420 114 1095 114h378v-360h-716q-344 -9 -621 -41q-155 -35 -155 -68q0 -41 123 -41h1369v-270z" />
    <glyph glyph-name="uni06D3" unicode="&#x6d3;" horiz-adv-x="1867" arabic-form="isolated" 
d="M1867 -420h-1367q-198 0 -337 98q-144 100 -144 251q0 154 92 241q63 59 218 116q192 71 257 108q94 54 251 206q117 112 188 112q94 0 189 -172v-360q-88 163 -171 163q-36 0 -120 -65q-121 -93 -176 -125q-66 -38 -242 -91q-130 -38 -130 -71q0 -51 123 -51h1369v-360z
M1164 1017h-336v94h74q-24 13 -39.5 42t-15.5 60q0 64 47 112t127 48q53 0 78.5 -6t35.5 -10v-101h-6q-14 6 -47.5 14.5t-58.5 8.5q-44 0 -66 -18t-22 -48q0 -45 46 -73.5t109 -28.5h74v-94z" />
    <glyph glyph-name="unifbb1" unicode="&#x6d3;" horiz-adv-x="1867" arabic-form="final" 
d="M1867 -420h-1367q-481 0 -481 309q0 126 105 222q78 69 270 135q420 114 1095 114h378v-360h-716q-344 -9 -621 -41q-155 -35 -155 -68q0 -41 123 -41h1369v-270zM1424 817h-336v94h74q-24 13 -39.5 42t-15.5 60q0 64 47 112t127 48q53 0 78.5 -6t35.5 -10v-101h-6
q-14 6 -47.5 14.5t-58.5 8.5q-44 0 -66 -18t-22 -48q0 -45 46 -73.5t109 -28.5h74v-94z" />
    <glyph glyph-name="uniFBA6" unicode="&#x6c1;" horiz-adv-x="1114" arabic-form="isolated" 
d="M1036 453q0 -210 -135.5 -341.5t-339.5 -131.5q-208 0 -340.5 130.5t-132.5 342.5q0 146 75.5 259t209.5 195l37 23l-134 127h322l180 -158q130 -112 194 -219.5t64 -226.5zM768 500q0 64 -43 124.5t-129 135.5l-16 14l-37 -22q-86 -52 -132 -112.5t-46 -139.5
q0 -63 54 -111.5t144 -48.5q88 0 146.5 50.5t58.5 109.5z" />
    <glyph glyph-name="uni0671" unicode="&#x671;" horiz-adv-x="627" arabic-form="isolated" 
d="M442 -4h-278v1556h278v-1556zM539 1817q0 -158 -165 -158q-28 0 -94 8t-99 8q-74 0 -127 -34v101q50 28 105 28q41 0 57 -1q0 61 30 120q46 90 143 90q69 0 109.5 -44.5t40.5 -117.5zM449 1817q0 67 -60 67q-45 0 -69 -45q-20 -36 -20 -85q49 -7 65 -7q84 0 84 70z" />
    <glyph glyph-name="uniFB51" unicode="&#x671;" horiz-adv-x="698" arabic-form="final" 
d="M698 0h-98q-202 0 -320 164.5t-118 433.5v956h278v-956q0 -62 17 -106.5t44 -73.5q28 -28 64 -43t80 -15h53v-360zM627 0zM539 1817q0 -158 -165 -158q-28 0 -94 8t-99 8q-74 0 -127 -34v101q50 28 105 28q41 0 57 -1q0 61 30 120q46 90 143 90q69 0 109.5 -44.5
t40.5 -117.5zM449 1817q0 67 -60 67q-45 0 -69 -45q-20 -36 -20 -85q49 -7 65 -7q84 0 84 70z" />
    <glyph glyph-name="uni0672.fina" unicode="&#x672;" horiz-adv-x="698" 
d="M698 0h-98q-202 0 -320 164.5t-118 433.5v956h278v-956q0 -62 17 -106.5t44 -73.5q28 -28 64 -43t80 -15h53v-360zM627 0zM298 1659q-31 0 -71 15t-54 15q-43 0 -117 -64v101q64 57 117 57q19 0 96 -30q-55 30 -55 102t52 117q49 43 122 43q60 0 114 -16v-101h-6
q-54 23 -106 23q-88 0 -88 -66q0 -50 55 -79q45 -23 100 -23h74v-94h-233z" />
    <glyph glyph-name="uni0673.fina" unicode="&#x673;" horiz-adv-x="698" 
d="M698 0h-98q-202 0 -320 164.5t-118 433.5v956h278v-956q0 -62 17 -106.5t44 -73.5q28 -28 64 -43t80 -15h53v-360zM627 0zM298 -389q-31 0 -71 15t-54 15q-43 0 -117 -64v101q64 57 117 57q19 0 96 -30q-55 30 -55 102t52 117q49 43 122 43q60 0 114 -16v-101h-6
q-54 23 -106 23q-88 0 -88 -66q0 -50 55 -79q45 -23 100 -23h74v-94h-233z" />
    <glyph glyph-name="uni0675.fina" unicode="&#x675;" horiz-adv-x="698" 
d="M698 0h-98q-202 0 -320 164.5t-118 433.5v956h278v-956q0 -62 17 -106.5t44 -73.5q28 -28 64 -43t80 -15h53v-360zM627 0zM824 1196h-336v94h74q-24 13 -39.5 42t-15.5 60q0 64 47 112t127 48q53 0 78.5 -6t35.5 -10v-101h-6q-14 6 -47.5 14.5t-58.5 8.5q-44 0 -66 -18
t-22 -48q0 -45 46 -73.5t109 -28.5h74v-94z" />
    <glyph glyph-name="uni0676.fina" unicode="&#x676;" horiz-adv-x="1157" 
d="M694 383q-13 136 -63 215.5t-103 79.5q-54 0 -91.5 -43t-37.5 -103t88 -101t207 -48zM1157 0h-4q-55 0 -127 7t-88 9q-63 -136 -183 -223.5t-262 -134.5t-285.5 -64.5t-270.5 -17.5v344q186 0 322 23.5t215 50.5q91 31 123.5 50.5t39.5 23.5q-250 28 -382 154.5
t-132 303.5q0 186 118.5 319.5t284.5 133.5q186 0 314 -171t147 -441q17 -2 76.5 -4.5t85.5 -2.5h8v-360zM961 274zM1083 0zM1024 1188h-336v94h74q-24 13 -39.5 42t-15.5 60q0 64 47 112t127 48q53 0 78.5 -6t35.5 -10v-101h-6q-14 6 -47.5 14.5t-58.5 8.5q-44 0 -66 -18
t-22 -48q0 -45 46 -73.5t109 -28.5h74v-94z" />
    <glyph glyph-name="uni0677" unicode="&#x677;" horiz-adv-x="1083" arabic-form="isolated" 
d="M961 274q0 -204 -97.5 -351.5t-284.5 -228.5q-146 -65 -311.5 -91.5t-359.5 -26.5v344q85 0 218 10t221 30q104 23 188 63t120 104q-10 -2 -55.5 -8t-54.5 -6q-205 0 -328 117.5t-123 295.5q0 190 121.5 321.5t282.5 131.5q193 0 328 -194t135 -511zM666 449
q-19 97 -60.5 152.5t-95.5 55.5t-96.5 -36.5t-42.5 -88.5q0 -37 40 -67.5t121 -30.5q42 0 83 5.5t51 9.5zM1024 1188h-336v94h74q-24 13 -39.5 42t-15.5 60q0 64 47 112t127 48q53 0 78.5 -6t35.5 -10v-101h-6q-14 6 -47.5 14.5t-58.5 8.5q-44 0 -66 -18t-22 -48
q0 -45 46 -73.5t109 -28.5h74v-94zM496 1188l-127 28q-91 -52 -180.5 -79t-188.5 -33v88q75 5 141 19t131 44q-51 16 -90 57.5t-39 98.5q0 69 46.5 113.5t125.5 44.5q69 0 119.5 -45t50.5 -117q0 -34 -18 -70.5t-35 -50.5l64 -12v-86zM348 1311q21 18 34 40.5t13 57.5
q0 29 -23.5 47t-52.5 18q-35 0 -58 -16.5t-23 -48.5q0 -34 28.5 -59.5t81.5 -38.5z" />
    <glyph glyph-name="uni0678.fina" unicode="&#x678;" horiz-adv-x="2247" 
d="M2247 0h-58q-53 0 -102 28t-95 72q-46 46 -91.5 106t-84.5 115q-42 60 -83.5 118t-83.5 103q-43 47 -85.5 74t-86.5 27q-52 0 -90.5 -33t-38.5 -63q0 -32 58.5 -75t111.5 -82q84 -61 127 -119t43 -115q0 -223 -227 -353.5t-638 -130.5q-364 0 -532 132.5t-168 402.5
q0 110 11.5 207.5t19.5 126.5h274v-11q-4 -22 -15.5 -112.5t-11.5 -208.5q0 -89 91 -132.5t333 -43.5q292 0 438 31.5t146 93.5q0 45 -55.5 87t-114.5 82q-65 44 -117.5 97.5t-52.5 124.5q0 144 119.5 255t288.5 111q68 0 124.5 -25t103.5 -62q54 -42 97 -93t80 -98
q40 -51 78 -101.5t74 -88.5q39 -41 74 -64t77 -23h62v-360zM2124 1057h-336v94h74q-24 13 -39.5 42t-15.5 60q0 64 47 112t127 48q53 0 78.5 -6t35.5 -10v-101h-6q-14 6 -47.5 14.5t-58.5 8.5q-44 0 -66 -18t-22 -48q0 -45 46 -73.5t109 -28.5h74v-94z" />
    <glyph glyph-name="uni067A" unicode="&#x67a;" horiz-adv-x="1901" arabic-form="isolated" 
d="M1772 582q0 -281 -203 -435.5t-621 -154.5q-417 0 -618 157t-201 433q0 96 14 184t17 100h274v-10q-6 -30 -16 -114.5t-10 -147.5q0 -114 140.5 -177t401.5 -63q258 0 400.5 63t142.5 177q0 79 -11 156t-16 106v10h273q7 -29 20 -123t13 -161zM1047 1224h-148v148h148
v-148zM1047 1015h-148v148h148v-148z" />
    <glyph glyph-name="uniFB5F" unicode="&#x67a;" horiz-adv-x="2107" arabic-form="final" 
d="M2107 0h-159q-78 0 -158 43.5t-117 106.5q-40 -64 -121.5 -107t-183.5 -43h-424q-405 0 -612 151.5t-207 438.5q0 96 16 183t21 101h266v-8q-6 -25 -16.5 -109t-10.5 -155q0 -113 142 -177.5t403 -64.5h249h128q91 0 153 38.5t62 115.5q0 84 -5 134.5t-7 62.5v10h270
q6 -24 14.5 -89.5t8.5 -125.5q0 -58 43 -102t104 -44h141v-360zM1901 0zM1107 1224h-148v148h148v-148zM1107 1015h-148v148h148v-148z" />
    <glyph glyph-name="uniFB60" unicode="&#x67a;" horiz-adv-x="698" arabic-form="initial" 
d="M537 598q0 -275 -120.5 -436.5t-318.5 -161.5h-168v360h123q93 0 149 63t56 175v293h279v-293zM465 1224h-148v148h148v-148zM465 1015h-148v148h148v-148z" />
    <glyph glyph-name="uniFB61" unicode="&#x67a;" horiz-adv-x="793" arabic-form="medial" 
d="M793 0h-99q-106 0 -186 45t-113 102q-42 -68 -118.5 -107.5t-178.5 -39.5h-168v360h123q89 0 146 61.5t57 176.5v123h279v-123q0 -107 54 -172.5t150 -65.5h54v-360zM698 0zM465 1224h-148v148h148v-148zM465 1015h-148v148h148v-148z" />
    <glyph glyph-name="uni067B" unicode="&#x67b;" horiz-adv-x="1901" arabic-form="isolated" 
d="M1772 582q0 -281 -203 -435.5t-621 -154.5q-417 0 -618 157t-201 433q0 96 14 184t17 100h274v-10q-6 -30 -16 -114.5t-10 -147.5q0 -114 140.5 -177t401.5 -63q258 0 400.5 63t142.5 177q0 79 -11 156t-16 106v10h273q7 -29 20 -123t13 -161zM1047 -211h-148v148h148
v-148zM1047 -420h-148v148h148v-148z" />
    <glyph glyph-name="uniFB53" unicode="&#x67b;" horiz-adv-x="2107" arabic-form="final" 
d="M2107 0h-159q-78 0 -158 43.5t-117 106.5q-40 -64 -121.5 -107t-183.5 -43h-424q-405 0 -612 151.5t-207 438.5q0 96 16 183t21 101h266v-8q-6 -25 -16.5 -109t-10.5 -155q0 -113 142 -177.5t403 -64.5h249h128q91 0 153 38.5t62 115.5q0 84 -5 134.5t-7 62.5v10h270
q6 -24 14.5 -89.5t8.5 -125.5q0 -58 43 -102t104 -44h141v-360zM1901 0zM1107 -211h-148v148h148v-148zM1107 -420h-148v148h148v-148z" />
    <glyph glyph-name="uniFB54" unicode="&#x67b;" horiz-adv-x="698" arabic-form="initial" 
d="M537 598q0 -275 -120.5 -436.5t-318.5 -161.5h-168v360h123q93 0 149 63t56 175v293h279v-293zM465 -211h-148v148h148v-148zM465 -420h-148v148h148v-148z" />
    <glyph glyph-name="uniFB55" unicode="&#x67b;" horiz-adv-x="793" arabic-form="medial" 
d="M793 0h-99q-106 0 -186 45t-113 102q-42 -68 -118.5 -107.5t-178.5 -39.5h-168v360h123q89 0 146 61.5t57 176.5v123h279v-123q0 -107 54 -172.5t150 -65.5h54v-360zM698 0zM465 -211h-148v148h148v-148zM465 -420h-148v148h148v-148z" />
    <glyph glyph-name="uni067C.init" unicode="&#x67c;" horiz-adv-x="698" 
d="M537 598q0 -275 -120.5 -436.5t-318.5 -161.5h-168v360h123q93 0 149 63t56 175v293h279v-293zM331 1015h-148v148h148v-148zM599 1015h-148v148h148v-148zM517 -42q0 -79 -56 -134t-133 -55q-78 0 -133 55.5t-55 133.5q0 77 55.5 132.5t132.5 55.5q78 0 133.5 -55
t55.5 -133zM421 -44q0 40 -28 68t-69 28q-40 0 -68 -28t-28 -68q0 -38 29 -66t67 -28q39 0 68 28t29 66z" />
    <glyph glyph-name="uni067C.medi" unicode="&#x67c;" horiz-adv-x="793" 
d="M793 0h-99q-106 0 -186 45t-113 102q-42 -68 -118.5 -107.5t-178.5 -39.5h-168v360h123q89 0 146 61.5t57 176.5v123h279v-123q0 -107 54 -172.5t150 -65.5h54v-360zM698 0zM331 1015h-148v148h148v-148zM599 1015h-148v148h148v-148zM577 -6q0 -79 -56 -134t-133 -55
q-78 0 -133 55.5t-55 133.5q0 77 55.5 132.5t132.5 55.5q78 0 133.5 -55t55.5 -133zM481 -8q0 40 -28 68t-69 28q-40 0 -68 -28t-28 -68q0 -38 29 -66t67 -28q39 0 68 28t29 66z" />
    <glyph glyph-name="uni067C.fina" unicode="&#x67c;" horiz-adv-x="2107" 
d="M2107 0h-159q-78 0 -158 43.5t-117 106.5q-40 -64 -121.5 -107t-183.5 -43h-424q-405 0 -612 151.5t-207 438.5q0 96 16 183t21 101h266v-8q-6 -25 -16.5 -109t-10.5 -155q0 -113 142 -177.5t403 -64.5h249h128q91 0 153 38.5t62 115.5q0 84 -5 134.5t-7 62.5v10h270
q6 -24 14.5 -89.5t8.5 -125.5q0 -58 43 -102t104 -44h141v-360zM1901 0zM973 1015h-148v148h148v-148zM1241 1015h-148v148h148v-148zM1217 -96q0 -79 -56 -134t-133 -55q-78 0 -133 55.5t-55 133.5q0 77 55.5 132.5t132.5 55.5q78 0 133.5 -55t55.5 -133zM1121 -98
q0 40 -28 68t-69 28q-40 0 -68 -28t-28 -68q0 -38 29 -66t67 -28q39 0 68 28t29 66z" />
    <glyph glyph-name="uni067D.init" unicode="&#x67d;" horiz-adv-x="698" 
d="M537 598q0 -275 -120.5 -436.5t-318.5 -161.5h-168v360h123q93 0 149 63t56 175v293h279v-293zM317 1224h-148v148h148v-148zM613 1224h-148v148h148v-148zM465 1015h-148v148h148v-148z" />
    <glyph glyph-name="uni067D.medi" unicode="&#x67d;" horiz-adv-x="793" 
d="M793 0h-99q-106 0 -186 45t-113 102q-42 -68 -118.5 -107.5t-178.5 -39.5h-168v360h123q89 0 146 61.5t57 176.5v123h279v-123q0 -107 54 -172.5t150 -65.5h54v-360zM698 0zM317 1224h-148v148h148v-148zM613 1224h-148v148h148v-148zM465 1015h-148v148h148v-148z" />
    <glyph glyph-name="uni067D.fina" unicode="&#x67d;" horiz-adv-x="2107" 
d="M2107 0h-159q-78 0 -158 43.5t-117 106.5q-40 -64 -121.5 -107t-183.5 -43h-424q-405 0 -612 151.5t-207 438.5q0 96 16 183t21 101h266v-8q-6 -25 -16.5 -109t-10.5 -155q0 -113 142 -177.5t403 -64.5h249h128q91 0 153 38.5t62 115.5q0 84 -5 134.5t-7 62.5v10h270
q6 -24 14.5 -89.5t8.5 -125.5q0 -58 43 -102t104 -44h141v-360zM1901 0zM959 1224h-148v148h148v-148zM1255 1224h-148v148h148v-148zM1107 1015h-148v148h148v-148z" />
    <glyph glyph-name="uni067F" unicode="&#x67f;" horiz-adv-x="1901" arabic-form="isolated" 
d="M1772 582q0 -281 -203 -435.5t-621 -154.5q-417 0 -618 157t-201 433q0 96 14 184t17 100h274v-10q-6 -30 -16 -114.5t-10 -147.5q0 -114 140.5 -177t401.5 -63q258 0 400.5 63t142.5 177q0 79 -11 156t-16 106v10h273q7 -29 20 -123t13 -161zM1181 1224h-148v148h148
v-148zM1181 1015h-148v148h148v-148zM913 1224h-148v148h148v-148zM913 1015h-148v148h148v-148z" />
    <glyph glyph-name="uniFB63" unicode="&#x67f;" horiz-adv-x="2107" arabic-form="final" 
d="M2107 0h-159q-78 0 -158 43.5t-117 106.5q-40 -64 -121.5 -107t-183.5 -43h-424q-405 0 -612 151.5t-207 438.5q0 96 16 183t21 101h266v-8q-6 -25 -16.5 -109t-10.5 -155q0 -113 142 -177.5t403 -64.5h249h128q91 0 153 38.5t62 115.5q0 84 -5 134.5t-7 62.5v10h270
q6 -24 14.5 -89.5t8.5 -125.5q0 -58 43 -102t104 -44h141v-360zM1901 0zM1241 1224h-148v148h148v-148zM1241 1015h-148v148h148v-148zM973 1224h-148v148h148v-148zM973 1015h-148v148h148v-148z" />
    <glyph glyph-name="uniFB64" unicode="&#x67f;" horiz-adv-x="698" arabic-form="initial" 
d="M537 598q0 -275 -120.5 -436.5t-318.5 -161.5h-168v360h123q93 0 149 63t56 175v293h279v-293zM599 1224h-148v148h148v-148zM599 1015h-148v148h148v-148zM331 1224h-148v148h148v-148zM331 1015h-148v148h148v-148z" />
    <glyph glyph-name="uniFB65" unicode="&#x67f;" horiz-adv-x="793" arabic-form="medial" 
d="M793 0h-99q-106 0 -186 45t-113 102q-42 -68 -118.5 -107.5t-178.5 -39.5h-168v360h123q89 0 146 61.5t57 176.5v123h279v-123q0 -107 54 -172.5t150 -65.5h54v-360zM698 0zM599 1224h-148v148h148v-148zM599 1015h-148v148h148v-148zM331 1224h-148v148h148v-148z
M331 1015h-148v148h148v-148z" />
    <glyph glyph-name="uni0680" unicode="&#x680;" horiz-adv-x="1901" arabic-form="isolated" 
d="M1772 582q0 -281 -203 -435.5t-621 -154.5q-417 0 -618 157t-201 433q0 96 14 184t17 100h274v-10q-6 -30 -16 -114.5t-10 -147.5q0 -114 140.5 -177t401.5 -63q258 0 400.5 63t142.5 177q0 79 -11 156t-16 106v10h273q7 -29 20 -123t13 -161zM1181 -211h-148v148h148
v-148zM1181 -420h-148v148h148v-148zM913 -211h-148v148h148v-148zM913 -420h-148v148h148v-148z" />
    <glyph glyph-name="uniFB5B" unicode="&#x680;" horiz-adv-x="2107" arabic-form="final" 
d="M2107 0h-159q-78 0 -158 43.5t-117 106.5q-40 -64 -121.5 -107t-183.5 -43h-424q-405 0 -612 151.5t-207 438.5q0 96 16 183t21 101h266v-8q-6 -25 -16.5 -109t-10.5 -155q0 -113 142 -177.5t403 -64.5h249h128q91 0 153 38.5t62 115.5q0 84 -5 134.5t-7 62.5v10h270
q6 -24 14.5 -89.5t8.5 -125.5q0 -58 43 -102t104 -44h141v-360zM1901 0zM1241 -211h-148v148h148v-148zM1241 -420h-148v148h148v-148zM973 -211h-148v148h148v-148zM973 -420h-148v148h148v-148z" />
    <glyph glyph-name="uniFB5C" unicode="&#x680;" horiz-adv-x="698" arabic-form="initial" 
d="M537 598q0 -275 -120.5 -436.5t-318.5 -161.5h-168v360h123q93 0 149 63t56 175v293h279v-293zM599 -211h-148v148h148v-148zM599 -420h-148v148h148v-148zM331 -211h-148v148h148v-148zM331 -420h-148v148h148v-148z" />
    <glyph glyph-name="uniFB5D" unicode="&#x680;" horiz-adv-x="793" arabic-form="medial" 
d="M793 0h-99q-106 0 -186 45t-113 102q-42 -68 -118.5 -107.5t-178.5 -39.5h-168v360h123q89 0 146 61.5t57 176.5v123h279v-123q0 -107 54 -172.5t150 -65.5h54v-360zM698 0zM599 -211h-148v148h148v-148zM599 -420h-148v148h148v-148zM331 -211h-148v148h148v-148z
M331 -420h-148v148h148v-148z" />
    <glyph glyph-name="uni0681.init" unicode="&#x681;" horiz-adv-x="1538" 
d="M1436 584l-455 -258q-69 -38 -148.5 -87t-202.5 -109q-114 -56 -213.5 -93t-193.5 -37h-293v360h301q174 0 313 44t353 159q-112 51 -270.5 84t-317.5 33h-203v309h213q174 0 366 -62t464 -222l287 151v-272zM986 1133h-336v94h74q-24 13 -39.5 42t-15.5 60q0 64 47 112
t127 48q53 0 78.5 -6t35.5 -10v-101h-6q-14 6 -47.5 14.5t-58.5 8.5q-44 0 -66 -18t-22 -48q0 -45 46 -73.5t109 -28.5h74v-94z" />
    <glyph glyph-name="uni0681.medi" unicode="&#x681;" horiz-adv-x="1538" 
d="M887 270q-171 -102 -352.5 -186t-311.5 -84h-293v360h301q197 0 343 53t323 150q-112 51 -270.5 84t-317.5 33h-203v309h213q181 0 372.5 -64t457.5 -220l287 151v-272l-351 -199q22 -13 45 -19t60 -6h348v-360h-305q-165 0 -251 63t-95 207zM986 1133h-336v94h74
q-24 13 -39.5 42t-15.5 60q0 64 47 112t127 48q53 0 78.5 -6t35.5 -10v-101h-6q-14 6 -47.5 14.5t-58.5 8.5q-44 0 -66 -18t-22 -48q0 -45 46 -73.5t109 -28.5h74v-94z" />
    <glyph glyph-name="uni0681.fina" unicode="&#x681;" horiz-adv-x="1618" 
d="M1458 575v-120q0 -47 25 -71t73 -24h62v-360h-74q-153 0 -233 77.5t-80 237.5v260h-60q-193 0 -339 -27t-243 -77q-90 -46 -139 -115t-49 -157q0 -117 97.5 -191t277.5 -74q105 0 219.5 16t212.5 52h9v-346q-108 -43 -212 -61.5t-227 -18.5q-137 0 -255.5 43t-208.5 125
q-89 81 -140 195.5t-51 257.5q0 113 52.5 212.5t148.5 178.5q95 78 231.5 128t309.5 64q-16 6 -53 14t-115 22q-72 13 -189 24.5t-238 11.5h-67v309h59q251 0 515.5 -81t467.5 -236h260v-269h-47zM1303 844zM1425 0zM1037 1304h-336v94h74q-24 13 -39.5 42t-15.5 60
q0 64 47 112t127 48q53 0 78.5 -6t35.5 -10v-101h-6q-14 6 -47.5 14.5t-58.5 8.5q-44 0 -66 -18t-22 -48q0 -45 46 -73.5t109 -28.5h74v-94z" />
    <glyph glyph-name="uni0682.init" unicode="&#x682;" horiz-adv-x="1538" 
d="M1436 584l-455 -258q-69 -38 -148.5 -87t-202.5 -109q-114 -56 -213.5 -93t-193.5 -37h-293v360h301q174 0 313 44t353 159q-112 51 -270.5 84t-317.5 33h-203v309h213q174 0 366 -62t464 -222l287 151v-272zM947 1342h-148v148h148v-148zM947 1133h-148v148h148v-148z
" />
    <glyph glyph-name="uni0682.medi" unicode="&#x682;" horiz-adv-x="1538" 
d="M887 270q-171 -102 -352.5 -186t-311.5 -84h-293v360h301q197 0 343 53t323 150q-112 51 -270.5 84t-317.5 33h-203v309h213q181 0 372.5 -64t457.5 -220l287 151v-272l-351 -199q22 -13 45 -19t60 -6h348v-360h-305q-165 0 -251 63t-95 207zM926 1342h-148v148h148v-148
zM926 1133h-148v148h148v-148z" />
    <glyph glyph-name="uni0682.fina" unicode="&#x682;" horiz-adv-x="1618" 
d="M1458 575v-120q0 -47 25 -71t73 -24h62v-360h-74q-153 0 -233 77.5t-80 237.5v260h-60q-193 0 -339 -27t-243 -77q-90 -46 -139 -115t-49 -157q0 -117 97.5 -191t277.5 -74q105 0 219.5 16t212.5 52h9v-346q-108 -43 -212 -61.5t-227 -18.5q-137 0 -255.5 43t-208.5 125
q-89 81 -140 195.5t-51 257.5q0 113 52.5 212.5t148.5 178.5q95 78 231.5 128t309.5 64q-16 6 -53 14t-115 22q-72 13 -189 24.5t-238 11.5h-67v309h59q251 0 515.5 -81t467.5 -236h260v-269h-47zM1303 844zM1425 0zM1051 1514h-148v148h148v-148zM1051 1305h-148v148h148
v-148z" />
    <glyph glyph-name="uni0683" unicode="&#x683;" horiz-adv-x="1425" arabic-form="isolated" 
d="M1303 575h-132q-193 0 -339.5 -27t-244.5 -77q-96 -49 -143 -119t-47 -153q0 -117 99.5 -191t279.5 -74q130 0 255.5 25t219.5 70h9v-346q-94 -52 -220 -79.5t-262 -27.5q-276 0 -465.5 171.5t-189.5 449.5q0 113 52.5 212.5t148.5 178.5q95 78 231.5 128t304.5 64
q-61 19 -246 45.5t-344 26.5h-67v309h84q226 0 489.5 -85t468.5 -232h58v-269zM779 156h-148v148h148v-148zM1047 156h-148v148h148v-148z" />
    <glyph glyph-name="uniFB77" unicode="&#x683;" horiz-adv-x="1618" arabic-form="final" 
d="M1458 575v-120q0 -47 25 -71t73 -24h62v-360h-74q-153 0 -233 77.5t-80 237.5v260h-60q-193 0 -339 -27t-243 -77q-90 -46 -139 -115t-49 -157q0 -117 97.5 -191t277.5 -74q105 0 219.5 16t212.5 52h9v-346q-108 -43 -212 -61.5t-227 -18.5q-137 0 -255.5 43t-208.5 125
q-89 81 -140 195.5t-51 257.5q0 113 52.5 212.5t148.5 178.5q95 78 231.5 128t309.5 64q-16 6 -53 14t-115 22q-72 13 -189 24.5t-238 11.5h-67v309h59q251 0 515.5 -81t467.5 -236h260v-269h-47zM1303 844zM1425 0zM790 160h-148v148h148v-148zM1058 160h-148v148h148v-148
z" />
    <glyph glyph-name="uniFB78" unicode="&#x683;" horiz-adv-x="1538" arabic-form="initial" 
d="M1436 584l-455 -258q-69 -38 -148.5 -87t-202.5 -109q-114 -56 -213.5 -93t-193.5 -37h-293v360h301q174 0 313 44t353 159q-112 51 -270.5 84t-317.5 33h-203v309h213q174 0 366 -62t464 -222l287 151v-272zM1108 -76h-148v148h148v-148zM1376 -76h-148v148h148v-148z
" />
    <glyph glyph-name="uniFB79" unicode="&#x683;" horiz-adv-x="1538" arabic-form="medial" 
d="M887 270q-171 -102 -352.5 -186t-311.5 -84h-293v360h301q197 0 343 53t323 150q-112 51 -270.5 84t-317.5 33h-203v309h213q181 0 372.5 -64t457.5 -220l287 151v-272l-351 -199q22 -13 45 -19t60 -6h348v-360h-305q-165 0 -251 63t-95 207zM604 -293h-148v148h148v-148
zM872 -293h-148v148h148v-148z" />
    <glyph glyph-name="uni0684" unicode="&#x684;" horiz-adv-x="1425" arabic-form="isolated" 
d="M1303 575h-132q-193 0 -339.5 -27t-244.5 -77q-96 -49 -143 -119t-47 -153q0 -117 99.5 -191t279.5 -74q130 0 255.5 25t219.5 70h9v-346q-94 -52 -220 -79.5t-262 -27.5q-276 0 -465.5 171.5t-189.5 449.5q0 113 52.5 212.5t148.5 178.5q95 78 231.5 128t304.5 64
q-61 19 -246 45.5t-344 26.5h-67v309h84q226 0 489.5 -85t468.5 -232h58v-269zM913 279h-148v148h148v-148zM913 70h-148v148h148v-148z" />
    <glyph glyph-name="uniFB73" unicode="&#x684;" horiz-adv-x="1618" arabic-form="final" 
d="M1458 575v-120q0 -47 25 -71t73 -24h62v-360h-74q-153 0 -233 77.5t-80 237.5v260h-60q-193 0 -339 -27t-243 -77q-90 -46 -139 -115t-49 -157q0 -117 97.5 -191t277.5 -74q105 0 219.5 16t212.5 52h9v-346q-108 -43 -212 -61.5t-227 -18.5q-137 0 -255.5 43t-208.5 125
q-89 81 -140 195.5t-51 257.5q0 113 52.5 212.5t148.5 178.5q95 78 231.5 128t309.5 64q-16 6 -53 14t-115 22q-72 13 -189 24.5t-238 11.5h-67v309h59q251 0 515.5 -81t467.5 -236h260v-269h-47zM1303 844zM1425 0zM913 279h-148v148h148v-148zM913 70h-148v148h148v-148z
" />
    <glyph glyph-name="uniFB74" unicode="&#x684;" horiz-adv-x="1538" arabic-form="initial" 
d="M1436 584l-455 -258q-69 -38 -148.5 -87t-202.5 -109q-114 -56 -213.5 -93t-193.5 -37h-293v360h301q174 0 313 44t353 159q-112 51 -270.5 84t-317.5 33h-203v309h213q174 0 366 -62t464 -222l287 151v-272zM913 -211h-148v148h148v-148zM913 -420h-148v148h148v-148z
" />
    <glyph glyph-name="uniFB75" unicode="&#x684;" horiz-adv-x="1538" arabic-form="medial" 
d="M887 270q-171 -102 -352.5 -186t-311.5 -84h-293v360h301q197 0 343 53t323 150q-112 51 -270.5 84t-317.5 33h-203v309h213q181 0 372.5 -64t457.5 -220l287 151v-272l-351 -199q22 -13 45 -19t60 -6h348v-360h-305q-165 0 -251 63t-95 207zM913 -211h-148v148h148v-148
zM913 -420h-148v148h148v-148z" />
    <glyph glyph-name="uni0685.init" unicode="&#x685;" horiz-adv-x="1538" 
d="M1436 584l-455 -258q-69 -38 -148.5 -87t-202.5 -109q-114 -56 -213.5 -93t-193.5 -37h-293v360h301q174 0 313 44t353 159q-112 51 -270.5 84t-317.5 33h-203v309h213q174 0 366 -62t464 -222l287 151v-272zM799 1133h-148v148h148v-148zM1095 1133h-148v148h148v-148z
M947 1342h-148v148h148v-148z" />
    <glyph glyph-name="uni0685.medi" unicode="&#x685;" horiz-adv-x="1538" 
d="M887 270q-171 -102 -352.5 -186t-311.5 -84h-293v360h301q197 0 343 53t323 150q-112 51 -270.5 84t-317.5 33h-203v309h213q181 0 372.5 -64t457.5 -220l287 151v-272l-351 -199q22 -13 45 -19t60 -6h348v-360h-305q-165 0 -251 63t-95 207zM778 1133h-148v148h148v-148
zM1074 1133h-148v148h148v-148zM926 1342h-148v148h148v-148z" />
    <glyph glyph-name="uni0685.fina" unicode="&#x685;" horiz-adv-x="1618" 
d="M1458 575v-120q0 -47 25 -71t73 -24h62v-360h-74q-153 0 -233 77.5t-80 237.5v260h-60q-193 0 -339 -27t-243 -77q-90 -46 -139 -115t-49 -157q0 -117 97.5 -191t277.5 -74q105 0 219.5 16t212.5 52h9v-346q-108 -43 -212 -61.5t-227 -18.5q-137 0 -255.5 43t-208.5 125
q-89 81 -140 195.5t-51 257.5q0 113 52.5 212.5t148.5 178.5q95 78 231.5 128t309.5 64q-16 6 -53 14t-115 22q-72 13 -189 24.5t-238 11.5h-67v309h59q251 0 515.5 -81t467.5 -236h260v-269h-47zM1303 844zM1425 0zM903 1305h-148v148h148v-148zM1199 1305h-148v148h148
v-148zM1051 1514h-148v148h148v-148z" />
    <glyph glyph-name="uni0687" unicode="&#x687;" horiz-adv-x="1425" arabic-form="isolated" 
d="M1303 575h-132q-193 0 -339.5 -27t-244.5 -77q-96 -49 -143 -119t-47 -153q0 -117 99.5 -191t279.5 -74q130 0 255.5 25t219.5 70h9v-346q-94 -52 -220 -79.5t-262 -27.5q-276 0 -465.5 171.5t-189.5 449.5q0 113 52.5 212.5t148.5 178.5q95 78 231.5 128t304.5 64
q-61 19 -246 45.5t-344 26.5h-67v309h84q226 0 489.5 -85t468.5 -232h58v-269zM1047 279h-148v148h148v-148zM1047 70h-148v148h148v-148zM779 279h-148v148h148v-148zM779 70h-148v148h148v-148z" />
    <glyph glyph-name="uniFB7F" unicode="&#x687;" horiz-adv-x="1618" arabic-form="final" 
d="M1458 575v-120q0 -47 25 -71t73 -24h62v-360h-74q-153 0 -233 77.5t-80 237.5v260h-60q-193 0 -339 -27t-243 -77q-90 -46 -139 -115t-49 -157q0 -117 97.5 -191t277.5 -74q105 0 219.5 16t212.5 52h9v-346q-108 -43 -212 -61.5t-227 -18.5q-137 0 -255.5 43t-208.5 125
q-89 81 -140 195.5t-51 257.5q0 113 52.5 212.5t148.5 178.5q95 78 231.5 128t309.5 64q-16 6 -53 14t-115 22q-72 13 -189 24.5t-238 11.5h-67v309h59q251 0 515.5 -81t467.5 -236h260v-269h-47zM1303 844zM1425 0zM1047 279h-148v148h148v-148zM1047 70h-148v148h148v-148
zM779 279h-148v148h148v-148zM779 70h-148v148h148v-148z" />
    <glyph glyph-name="uniFB80" unicode="&#x687;" horiz-adv-x="1538" arabic-form="initial" 
d="M1436 584l-455 -258q-69 -38 -148.5 -87t-202.5 -109q-114 -56 -213.5 -93t-193.5 -37h-293v360h301q174 0 313 44t353 159q-112 51 -270.5 84t-317.5 33h-203v309h213q174 0 366 -62t464 -222l287 151v-272zM1047 -211h-148v148h148v-148zM1047 -420h-148v148h148v-148z
M779 -211h-148v148h148v-148zM779 -420h-148v148h148v-148z" />
    <glyph glyph-name="uniFB81" unicode="&#x687;" horiz-adv-x="1538" arabic-form="medial" 
d="M887 270q-171 -102 -352.5 -186t-311.5 -84h-293v360h301q197 0 343 53t323 150q-112 51 -270.5 84t-317.5 33h-203v309h213q181 0 372.5 -64t457.5 -220l287 151v-272l-351 -199q22 -13 45 -19t60 -6h348v-360h-305q-165 0 -251 63t-95 207zM1047 -211h-148v148h148
v-148zM1047 -420h-148v148h148v-148zM779 -211h-148v148h148v-148zM779 -420h-148v148h148v-148z" />
    <glyph glyph-name="uni0689.fina" unicode="&#x689;" horiz-adv-x="1178" 
d="M1178 0h-191q-96 0 -160 34.5t-100 104.5q-45 -77 -116.5 -108t-164.5 -31h-344v360h355q75 0 123.5 26.5t48.5 59.5q0 9 -4.5 27.5t-10.5 36.5l-188 637h311l156 -539q14 -48 33.5 -101.5t35.5 -79.5q19 -32 44.5 -49.5t62.5 -17.5h109v-360zM1114 0zM577 -96
q0 -79 -56 -134t-133 -55q-78 0 -133 55.5t-55 133.5q0 77 55.5 132.5t132.5 55.5q78 0 133.5 -55t55.5 -133zM481 -98q0 40 -28 68t-69 28q-40 0 -68 -28t-28 -68q0 -38 29 -66t67 -28q39 0 68 28t29 66z" />
    <glyph glyph-name="uni068b.fina" unicode="&#x68b;" horiz-adv-x="1178" 
d="M1178 0h-191q-96 0 -160 34.5t-100 104.5q-45 -77 -116.5 -108t-164.5 -31h-344v360h355q75 0 123.5 26.5t48.5 59.5q0 9 -4.5 27.5t-10.5 36.5l-188 637h311l156 -539q14 -48 33.5 -101.5t35.5 -79.5q19 -32 44.5 -49.5t62.5 -17.5h109v-360zM1114 0zM838 1555
q0 -89 -88 -133q-67 -33 -160 -33h-289v92h82q21 16 21 24v500h83v-397q104 113 190 113q71 0 116 -47t45 -119zM754 1553q0 32 -22.5 54.5t-55.5 22.5q-72 0 -179 -149h48q209 0 209 72zM465 -295h-148v148h148v-148z" />
    <glyph glyph-name="uni068c" unicode="&#x68c;" horiz-adv-x="1114" arabic-form="isolated" 
d="M768 822q106 -86 179 -186.5t73 -201.5q0 -207 -124.5 -320.5t-334.5 -113.5h-481v360h479q100 0 142 20.5t42 59.5q0 42 -32.5 84.5t-91.5 86.5q-59 45 -136.5 91t-183.5 105v323h8q96 -58 229.5 -142.5t231.5 -165.5zM316 1372h-148v148h148v-148zM584 1372h-148v148
h148v-148z" />
    <glyph glyph-name="uniFB85" unicode="&#x68c;" horiz-adv-x="1178" arabic-form="final" 
d="M1178 0h-191q-96 0 -160 34.5t-100 104.5q-45 -77 -116.5 -108t-164.5 -31h-344v360h355q75 0 123.5 26.5t48.5 59.5q0 9 -4.5 27.5t-10.5 36.5l-188 637h311l156 -539q14 -48 33.5 -101.5t35.5 -79.5q19 -32 44.5 -49.5t62.5 -17.5h109v-360zM1114 0zM508 1389h-148v148
h148v-148zM776 1389h-148v148h148v-148z" />
    <glyph glyph-name="uni068d" unicode="&#x68d;" horiz-adv-x="1114" arabic-form="isolated" 
d="M768 822q106 -86 179 -186.5t73 -201.5q0 -207 -124.5 -320.5t-334.5 -113.5h-481v360h479q100 0 142 20.5t42 59.5q0 42 -32.5 84.5t-91.5 86.5q-59 45 -136.5 91t-183.5 105v323h8q96 -58 229.5 -142.5t231.5 -165.5zM316 -293h-148v148h148v-148zM584 -293h-148v148
h148v-148z" />
    <glyph glyph-name="uniFB83" unicode="&#x68d;" horiz-adv-x="1178" arabic-form="final" 
d="M1178 0h-191q-96 0 -160 34.5t-100 104.5q-45 -77 -116.5 -108t-164.5 -31h-344v360h355q75 0 123.5 26.5t48.5 59.5q0 9 -4.5 27.5t-10.5 36.5l-188 637h311l156 -539q14 -48 33.5 -101.5t35.5 -79.5q19 -32 44.5 -49.5t62.5 -17.5h109v-360zM1114 0zM508 -293h-148v148
h148v-148zM776 -293h-148v148h148v-148z" />
    <glyph glyph-name="uni068e" unicode="&#x68e;" horiz-adv-x="1114" arabic-form="isolated" 
d="M768 822q106 -86 179 -186.5t73 -201.5q0 -207 -124.5 -320.5t-334.5 -113.5h-481v360h479q100 0 142 20.5t42 59.5q0 42 -32.5 84.5t-91.5 86.5q-59 45 -136.5 91t-183.5 105v323h8q96 -58 229.5 -142.5t231.5 -165.5zM302 1372h-148v148h148v-148zM598 1372h-148v148
h148v-148zM450 1581h-148v148h148v-148z" />
    <glyph glyph-name="uniFB87" unicode="&#x68e;" horiz-adv-x="1178" arabic-form="final" 
d="M1178 0h-191q-96 0 -160 34.5t-100 104.5q-45 -77 -116.5 -108t-164.5 -31h-344v360h355q75 0 123.5 26.5t48.5 59.5q0 9 -4.5 27.5t-10.5 36.5l-188 637h311l156 -539q14 -48 33.5 -101.5t35.5 -79.5q19 -32 44.5 -49.5t62.5 -17.5h109v-360zM1114 0zM494 1389h-148v148
h148v-148zM790 1389h-148v148h148v-148zM642 1598h-148v148h148v-148z" />
    <glyph glyph-name="uni068F.fina" unicode="&#x68f;" horiz-adv-x="1178" 
d="M1178 0h-191q-96 0 -160 34.5t-100 104.5q-45 -77 -116.5 -108t-164.5 -31h-344v360h355q75 0 123.5 26.5t48.5 59.5q0 9 -4.5 27.5t-10.5 36.5l-188 637h311l156 -539q14 -48 33.5 -101.5t35.5 -79.5q19 -32 44.5 -49.5t62.5 -17.5h109v-360zM1114 0zM494 1581h-148v148
h148v-148zM790 1581h-148v148h148v-148zM642 1372h-148v148h148v-148z" />
    <glyph glyph-name="uni0690.fina" unicode="&#x690;" horiz-adv-x="1178" 
d="M1178 0h-191q-96 0 -160 34.5t-100 104.5q-45 -77 -116.5 -108t-164.5 -31h-344v360h355q75 0 123.5 26.5t48.5 59.5q0 9 -4.5 27.5t-10.5 36.5l-188 637h311l156 -539q14 -48 33.5 -101.5t35.5 -79.5q19 -32 44.5 -49.5t62.5 -17.5h109v-360zM1114 0zM776 1581h-148v148
h148v-148zM776 1372h-148v148h148v-148zM508 1581h-148v148h148v-148zM508 1372h-148v148h148v-148z" />
    <glyph glyph-name="uni0692.fina" unicode="&#x692;" horiz-adv-x="1042" 
d="M1042 0h-98q-38 0 -88 12t-76 27q-56 -136 -160.5 -225.5t-228.5 -141.5q-126 -53 -252 -74.5t-231 -21.5v363q93 0 213.5 17.5t206.5 52.5q99 41 158 103.5t59 153.5q0 67 -18 138t-40 126q-25 61 -44.5 98.5t-26.5 49.5v12h293q21 -37 50.5 -101t39.5 -100
q17 -58 63 -93.5t125 -35.5h55v-360zM946 0zM829 299zM733 1218l-127 -286h-98l-127 286h107l69 -189l69 189h107z" />
    <glyph glyph-name="uni0693.fina" unicode="&#x693;" horiz-adv-x="1042" 
d="M1042 0h-98q-38 0 -88 12t-76 27q-56 -136 -160.5 -225.5t-228.5 -141.5q-126 -53 -252 -74.5t-231 -21.5v363q93 0 213.5 17.5t206.5 52.5q99 41 158 103.5t59 153.5q0 67 -18 138t-40 126q-25 61 -44.5 98.5t-26.5 49.5v12h293q21 -37 50.5 -101t39.5 -100
q17 -58 63 -93.5t125 -35.5h55v-360zM946 0zM829 299zM897 -235q0 -79 -56 -134t-133 -55q-78 0 -133 55.5t-55 133.5q0 77 55.5 132.5t132.5 55.5q78 0 133.5 -55t55.5 -133zM801 -237q0 40 -28 68t-69 28q-40 0 -68 -28t-28 -68q0 -38 29 -66t67 -28q39 0 68 28t29 66z
" />
    <glyph glyph-name="uni0694.fina" unicode="&#x694;" horiz-adv-x="1042" 
d="M1042 0h-98q-38 0 -88 12t-76 27q-56 -136 -160.5 -225.5t-228.5 -141.5q-126 -53 -252 -74.5t-231 -21.5v363q93 0 213.5 17.5t206.5 52.5q99 41 158 103.5t59 153.5q0 67 -18 138t-40 126q-25 61 -44.5 98.5t-26.5 49.5v12h293q21 -37 50.5 -101t39.5 -100
q17 -58 63 -93.5t125 -35.5h55v-360zM946 0zM829 299zM805 -384h-148v148h148v-148z" />
    <glyph glyph-name="uni0695.fina" unicode="&#x695;" horiz-adv-x="1042" 
d="M1042 0h-98q-38 0 -88 12t-76 27q-56 -136 -160.5 -225.5t-228.5 -141.5q-126 -53 -252 -74.5t-231 -21.5v363q93 0 213.5 17.5t206.5 52.5q99 41 158 103.5t59 153.5q0 67 -18 138t-40 126q-25 61 -44.5 98.5t-26.5 49.5v12h293q21 -37 50.5 -101t39.5 -100
q17 -58 63 -93.5t125 -35.5h55v-360zM946 0zM829 299zM1031 -138l-127 -286h-98l-127 286h107l69 -189l69 189h107z" />
    <glyph glyph-name="uni0696.fina" unicode="&#x696;" horiz-adv-x="1042" 
d="M1042 0h-98q-38 0 -88 12t-76 27q-56 -136 -160.5 -225.5t-228.5 -141.5q-126 -53 -252 -74.5t-231 -21.5v363q93 0 213.5 17.5t206.5 52.5q99 41 158 103.5t59 153.5q0 67 -18 138t-40 126q-25 61 -44.5 98.5t-26.5 49.5v12h293q21 -37 50.5 -101t39.5 -100
q17 -58 63 -93.5t125 -35.5h55v-360zM946 0zM829 299zM805 -384h-148v148h148v-148zM285 100h-148v148h148v-148z" />
    <glyph glyph-name="uni0697.fina" unicode="&#x697;" horiz-adv-x="1042" 
d="M1042 0h-98q-38 0 -88 12t-76 27q-56 -136 -160.5 -225.5t-228.5 -141.5q-126 -53 -252 -74.5t-231 -21.5v363q93 0 213.5 17.5t206.5 52.5q99 41 158 103.5t59 153.5q0 67 -18 138t-40 126q-25 61 -44.5 98.5t-26.5 49.5v12h293q21 -37 50.5 -101t39.5 -100
q17 -58 63 -93.5t125 -35.5h55v-360zM946 0zM829 299zM493 932h-148v148h148v-148zM761 932h-148v148h148v-148z" />
    <glyph glyph-name="uni0699.fina" unicode="&#x699;" horiz-adv-x="1042" 
d="M1042 0h-98q-38 0 -88 12t-76 27q-56 -136 -160.5 -225.5t-228.5 -141.5q-126 -53 -252 -74.5t-231 -21.5v363q93 0 213.5 17.5t206.5 52.5q99 41 158 103.5t59 153.5q0 67 -18 138t-40 126q-25 61 -44.5 98.5t-26.5 49.5v12h293q21 -37 50.5 -101t39.5 -100
q17 -58 63 -93.5t125 -35.5h55v-360zM946 0zM829 299zM761 1141h-148v148h148v-148zM761 932h-148v148h148v-148zM493 1141h-148v148h148v-148zM493 932h-148v148h148v-148z" />
    <glyph glyph-name="uni069A.init" unicode="&#x69a;" horiz-adv-x="2247" 
d="M2083 592q0 -288 -130 -443t-356 -155q-99 0 -178.5 43.5t-118.5 103.5q-48 -65 -121.5 -106t-203.5 -41q-99 0 -179 43.5t-118 103.5q-49 -65 -129.5 -103t-194.5 -38h-424v360h424q82 0 133.5 58.5t51.5 152.5v148h278v-150q0 -86 42 -147.5t118 -61.5q86 0 135 58
t49 153v148h279v-150q0 -87 41.5 -148t117.5 -61q86 0 145.5 65t59.5 169v297h279v-299zM1379 961h-148v148h148v-148zM1379 -295h-148v148h148v-148z" />
    <glyph glyph-name="uni069A.medi" unicode="&#x69a;" horiz-adv-x="2335" 
d="M2335 0h-99q-113 0 -191 42.5t-108 100.5q-34 -62 -129 -105.5t-211 -43.5q-99 0 -178.5 43.5t-118.5 103.5q-42 -62 -125 -104.5t-200 -42.5q-99 0 -179 43.5t-118 103.5q-54 -71 -136 -106t-188 -35h-424v360h424q82 0 133.5 58.5t51.5 152.5v148h278v-150
q0 -86 42 -147.5t118 -61.5q86 0 135 58t49 153v148h279v-150q0 -87 41.5 -148t117.5 -61q86 0 142.5 65t56.5 169v297h279v-299q0 -112 60 -172t142 -60h56v-360zM2247 0zM1379 961h-148v148h148v-148zM1379 -295h-148v148h148v-148z" />
    <glyph glyph-name="uni069A.fina" unicode="&#x69a;" horiz-adv-x="3004" 
d="M3004 0h-98q-113 0 -191 42.5t-108 100.5q-39 -66 -133 -107.5t-207 -41.5q-99 0 -179 43.5t-118 103.5q-55 -74 -139 -110.5t-184 -36.5q-60 0 -114.5 27t-86.5 71q-36 -242 -224.5 -379t-447.5 -137q-139 0 -258 42.5t-207 124.5q-86 82 -136 207t-50 283q0 145 17 257
t20 126h284v-12q-9 -32 -26 -149.5t-17 -216.5q0 -143 116 -221t257 -78q172 0 283.5 101t111.5 271q0 139 -7 260.5t-9 147.5h305q0 -174 52.5 -269.5t136.5 -95.5q81 0 132.5 61.5t51.5 155.5v148h278v-150q0 -87 42 -148t118 -61q86 0 142.5 65t56.5 169v297h278v-299
q0 -112 60.5 -172t142.5 -60h55v-360zM2871 0zM2045 961h-148v148h148v-148zM2045 -295h-148v148h148v-148z" />
    <glyph glyph-name="uni069B.init" unicode="&#x69b;" horiz-adv-x="2247" 
d="M2083 592q0 -288 -130 -443t-356 -155q-99 0 -178.5 43.5t-118.5 103.5q-48 -65 -121.5 -106t-203.5 -41q-99 0 -179 43.5t-118 103.5q-49 -65 -129.5 -103t-194.5 -38h-424v360h424q82 0 133.5 58.5t51.5 152.5v148h278v-150q0 -86 42 -147.5t118 -61.5q86 0 135 58
t49 153v148h279v-150q0 -87 41.5 -148t117.5 -61q86 0 145.5 65t59.5 169v297h279v-299zM1231 -214h-148v148h148v-148zM1527 -214h-148v148h148v-148zM1379 -423h-148v148h148v-148z" />
    <glyph glyph-name="uni069B.medi" unicode="&#x69b;" horiz-adv-x="2335" 
d="M2335 0h-99q-113 0 -191 42.5t-108 100.5q-34 -62 -129 -105.5t-211 -43.5q-99 0 -178.5 43.5t-118.5 103.5q-42 -62 -125 -104.5t-200 -42.5q-99 0 -179 43.5t-118 103.5q-54 -71 -136 -106t-188 -35h-424v360h424q82 0 133.5 58.5t51.5 152.5v148h278v-150
q0 -86 42 -147.5t118 -61.5q86 0 135 58t49 153v148h279v-150q0 -87 41.5 -148t117.5 -61q86 0 142.5 65t56.5 169v297h279v-299q0 -112 60 -172t142 -60h56v-360zM2247 0zM1231 -214h-148v148h148v-148zM1527 -214h-148v148h148v-148zM1379 -423h-148v148h148v-148z" />
    <glyph glyph-name="uni069B.fina" unicode="&#x69b;" horiz-adv-x="3004" 
d="M3004 0h-98q-113 0 -191 42.5t-108 100.5q-39 -66 -133 -107.5t-207 -41.5q-99 0 -179 43.5t-118 103.5q-55 -74 -139 -110.5t-184 -36.5q-60 0 -114.5 27t-86.5 71q-36 -242 -224.5 -379t-447.5 -137q-139 0 -258 42.5t-207 124.5q-86 82 -136 207t-50 283q0 145 17 257
t20 126h284v-12q-9 -32 -26 -149.5t-17 -216.5q0 -143 116 -221t257 -78q172 0 283.5 101t111.5 271q0 139 -7 260.5t-9 147.5h305q0 -174 52.5 -269.5t136.5 -95.5q81 0 132.5 61.5t51.5 155.5v148h278v-150q0 -87 42 -148t118 -61q86 0 142.5 65t56.5 169v297h278v-299
q0 -112 60.5 -172t142.5 -60h55v-360zM2871 0zM1897 -214h-148v148h148v-148zM2193 -214h-148v148h148v-148zM2045 -423h-148v148h148v-148z" />
    <glyph glyph-name="uni069C.init" unicode="&#x69c;" horiz-adv-x="2247" 
d="M2083 592q0 -288 -130 -443t-356 -155q-99 0 -178.5 43.5t-118.5 103.5q-48 -65 -121.5 -106t-203.5 -41q-99 0 -179 43.5t-118 103.5q-49 -65 -129.5 -103t-194.5 -38h-424v360h424q82 0 133.5 58.5t51.5 152.5v148h278v-150q0 -86 42 -147.5t118 -61.5q86 0 135 58
t49 153v148h279v-150q0 -87 41.5 -148t117.5 -61q86 0 145.5 65t59.5 169v297h279v-299zM1231 -214h-148v148h148v-148zM1527 -214h-148v148h148v-148zM1379 -423h-148v148h148v-148zM1231 961h-148v148h148v-148zM1527 961h-148v148h148v-148zM1379 1170h-148v148h148v-148
z" />
    <glyph glyph-name="uni069C.medi" unicode="&#x69c;" horiz-adv-x="2335" 
d="M2335 0h-99q-113 0 -191 42.5t-108 100.5q-34 -62 -129 -105.5t-211 -43.5q-99 0 -178.5 43.5t-118.5 103.5q-42 -62 -125 -104.5t-200 -42.5q-99 0 -179 43.5t-118 103.5q-54 -71 -136 -106t-188 -35h-424v360h424q82 0 133.5 58.5t51.5 152.5v148h278v-150
q0 -86 42 -147.5t118 -61.5q86 0 135 58t49 153v148h279v-150q0 -87 41.5 -148t117.5 -61q86 0 142.5 65t56.5 169v297h279v-299q0 -112 60 -172t142 -60h56v-360zM2247 0zM1231 -214h-148v148h148v-148zM1527 -214h-148v148h148v-148zM1379 -423h-148v148h148v-148z
M1231 961h-148v148h148v-148zM1527 961h-148v148h148v-148zM1379 1170h-148v148h148v-148z" />
    <glyph glyph-name="uni069C.fina" unicode="&#x69c;" horiz-adv-x="3004" 
d="M3004 0h-98q-113 0 -191 42.5t-108 100.5q-39 -66 -133 -107.5t-207 -41.5q-99 0 -179 43.5t-118 103.5q-55 -74 -139 -110.5t-184 -36.5q-60 0 -114.5 27t-86.5 71q-36 -242 -224.5 -379t-447.5 -137q-139 0 -258 42.5t-207 124.5q-86 82 -136 207t-50 283q0 145 17 257
t20 126h284v-12q-9 -32 -26 -149.5t-17 -216.5q0 -143 116 -221t257 -78q172 0 283.5 101t111.5 271q0 139 -7 260.5t-9 147.5h305q0 -174 52.5 -269.5t136.5 -95.5q81 0 132.5 61.5t51.5 155.5v148h278v-150q0 -87 42 -148t118 -61q86 0 142.5 65t56.5 169v297h278v-299
q0 -112 60.5 -172t142.5 -60h55v-360zM2871 0zM1897 -214h-148v148h148v-148zM2193 -214h-148v148h148v-148zM2045 -423h-148v148h148v-148zM1897 961h-148v148h148v-148zM2193 961h-148v148h148v-148zM2045 1170h-148v148h148v-148z" />
    <glyph glyph-name="uni069D.init" unicode="&#x69d;" horiz-adv-x="1905" 
d="M1782 539q0 -110 -54.5 -209.5t-150.5 -171.5q-99 -74 -230.5 -116t-293.5 -42h-541q-64 0 -114.5 21.5t-78.5 76.5q-32 -53 -79 -75.5t-136 -22.5h-174v360h164q40 0 63 22.5t23 66.5v112h279v-108q0 -33 5.5 -50t20.5 -24q84 120 184.5 245.5t191.5 206.5
q100 89 215.5 141t250.5 52q199 0 327 -137t128 -348zM1381 417q61 26 92.5 60.5t31.5 75.5q0 58 -46.5 106t-129.5 48q-95 0 -178 -35.5t-155 -87.5q-70 -52 -123.5 -110t-98.5 -114h195q142 0 246 15.5t166 41.5zM751 -295h-148v148h148v-148zM1019 -295h-148v148h148
v-148z" />
    <glyph glyph-name="uni069D.medi" unicode="&#x69d;" horiz-adv-x="2023" 
d="M2023 0h-112q-140 0 -217 41.5t-107 120.5q-106 -79 -241 -120.5t-293 -41.5h-541q-64 0 -114.5 21.5t-78.5 76.5q-32 -53 -79 -75.5t-136 -22.5h-174v360h164q40 0 63 22.5t23 66.5v112h279v-108q0 -33 5.5 -50t20.5 -24q101 143 193 255.5t187 196.5q100 88 217 140.5
t253 52.5q189 0 322 -130t133 -355q0 -34 -8 -78.5t-21 -75.5q22 -13 45.5 -19t61.5 -6h155v-360zM1390 417q64 28 93.5 62t29.5 74q0 58 -46.5 106t-129.5 48q-96 0 -179 -35.5t-154 -87.5q-70 -52 -123.5 -110t-98.5 -114h197q142 0 245.5 15.5t165.5 41.5zM1905 0z
M751 -295h-148v148h148v-148zM1019 -295h-148v148h148v-148z" />
    <glyph glyph-name="uni069D.fina" unicode="&#x69d;" horiz-adv-x="3043" 
d="M3043 0h-98q-116 0 -199 45.5t-131 142.5q-104 -88 -243.5 -138t-321.5 -50h-625q-70 -201 -240 -312.5t-411 -111.5q-139 0 -258 42.5t-207 124.5q-86 82 -136 207t-50 283q0 143 17 256t20 127h284v-12q-9 -32 -26 -149.5t-17 -216.5q0 -132 105.5 -215.5t267.5 -83.5
q80 0 152 24.5t123 68.5q59 51 89.5 121t30.5 158q0 141 -7 215.5t-9 89.5h285q2 -13 9 -67t9 -96q1 -21 6.5 -44t20.5 -30q101 143 193 255.5t187 196.5q100 88 217 140.5t253 52.5q180 0 308 -118.5t144 -313.5l2 -35q9 -94 67 -145.5t134 -51.5h55v-360zM2387 418
q61 26 92.5 59.5t31.5 71.5q0 65 -49.5 111.5t-126.5 46.5q-96 0 -180.5 -35.5t-154.5 -87.5q-71 -52 -127 -113t-95 -111h198q141 0 246 16.5t165 41.5zM2910 0zM1751 -295h-148v148h148v-148zM2019 -295h-148v148h148v-148z" />
    <glyph glyph-name="uni069E.init" unicode="&#x69e;" horiz-adv-x="1905" 
d="M1782 539q0 -110 -54.5 -209.5t-150.5 -171.5q-99 -74 -230.5 -116t-293.5 -42h-541q-64 0 -114.5 21.5t-78.5 76.5q-32 -53 -79 -75.5t-136 -22.5h-174v360h164q40 0 63 22.5t23 66.5v112h279v-108q0 -33 5.5 -50t20.5 -24q84 120 184.5 245.5t191.5 206.5
q100 89 215.5 141t250.5 52q199 0 327 -137t128 -348zM1381 417q61 26 92.5 60.5t31.5 75.5q0 58 -46.5 106t-129.5 48q-95 0 -178 -35.5t-155 -87.5q-70 -52 -123.5 -110t-98.5 -114h195q142 0 246 15.5t166 41.5zM1137 1165h-148v148h148v-148zM1433 1165h-148v148h148
v-148zM1285 1374h-148v148h148v-148z" />
    <glyph glyph-name="uni069E.medi" unicode="&#x69e;" horiz-adv-x="2023" 
d="M2023 0h-112q-140 0 -217 41.5t-107 120.5q-106 -79 -241 -120.5t-293 -41.5h-541q-64 0 -114.5 21.5t-78.5 76.5q-32 -53 -79 -75.5t-136 -22.5h-174v360h164q40 0 63 22.5t23 66.5v112h279v-108q0 -33 5.5 -50t20.5 -24q101 143 193 255.5t187 196.5q100 88 217 140.5
t253 52.5q189 0 322 -130t133 -355q0 -34 -8 -78.5t-21 -75.5q22 -13 45.5 -19t61.5 -6h155v-360zM1390 417q64 28 93.5 62t29.5 74q0 58 -46.5 106t-129.5 48q-96 0 -179 -35.5t-154 -87.5q-70 -52 -123.5 -110t-98.5 -114h197q142 0 245.5 15.5t165.5 41.5zM1905 0z
M1137 1165h-148v148h148v-148zM1433 1165h-148v148h148v-148zM1285 1374h-148v148h148v-148z" />
    <glyph glyph-name="uni069E.fina" unicode="&#x69e;" horiz-adv-x="3043" 
d="M3043 0h-98q-116 0 -199 45.5t-131 142.5q-104 -88 -243.5 -138t-321.5 -50h-625q-70 -201 -240 -312.5t-411 -111.5q-139 0 -258 42.5t-207 124.5q-86 82 -136 207t-50 283q0 143 17 256t20 127h284v-12q-9 -32 -26 -149.5t-17 -216.5q0 -132 105.5 -215.5t267.5 -83.5
q80 0 152 24.5t123 68.5q59 51 89.5 121t30.5 158q0 141 -7 215.5t-9 89.5h285q2 -13 9 -67t9 -96q1 -21 6.5 -44t20.5 -30q101 143 193 255.5t187 196.5q100 88 217 140.5t253 52.5q180 0 308 -118.5t144 -313.5l2 -35q9 -94 67 -145.5t134 -51.5h55v-360zM2387 418
q61 26 92.5 59.5t31.5 71.5q0 65 -49.5 111.5t-126.5 46.5q-96 0 -180.5 -35.5t-154.5 -87.5q-71 -52 -127 -113t-95 -111h198q141 0 246 16.5t165 41.5zM2910 0zM2137 1165h-148v148h148v-148zM2433 1165h-148v148h148v-148zM2285 1374h-148v148h148v-148z" />
    <glyph glyph-name="uni069F.medi" unicode="&#x69f;" horiz-adv-x="1765" 
d="M1140 420q61 27 92.5 61t31.5 72q0 66 -47 110t-130 44q-92 0 -175 -35.5t-155 -87.5q-63 -46 -119 -103.5t-106 -120.5h197q140 0 244.5 16.5t166.5 43.5zM1764 0h-103q-142 0 -218 42t-106 120q-104 -79 -240 -120.5t-294 -41.5h-873v360h287l31 31v1165h276v-815
q106 121 255 202t306 81q198 0 326.5 -131.5t128.5 -343.5q0 -57 -12 -105t-17 -57q22 -13 45.5 -20t61.5 -7h146v-360zM1663 0zM882 1266h-148v148h148v-148zM1178 1266h-148v148h148v-148zM1030 1475h-148v148h148v-148z" />
    <glyph glyph-name="uni06A0.init" unicode="&#x6a0;" horiz-adv-x="1391" 
d="M1290 184q-337 -95 -561.5 -139.5t-337.5 -44.5h-461v360h330q-32 30 -61 104.5t-29 137.5q0 223 148.5 366.5t383.5 143.5q115 0 242 -28.5t184 -55.5v-309h-12q-73 27 -198.5 52.5t-206.5 25.5q-118 0 -191.5 -61.5t-73.5 -143.5q0 -72 45.5 -128.5t104.5 -82.5
q169 20 366.5 65.5t327.5 75.5v-338zM610 1354h-148v148h148v-148zM906 1354h-148v148h148v-148zM758 1563h-148v148h148v-148z" />
    <glyph glyph-name="uni06A0.medi" unicode="&#x6a0;" horiz-adv-x="1208" 
d="M1208 0h-276q-92 0 -180 41.5t-150 99.5q-66 -65 -152 -103t-178 -38h-342v360h346q19 0 38 5.5t26 11.5q-38 26 -83.5 65t-81.5 78q-40 43 -67.5 87t-27.5 79q0 77 48 137t126 102q69 38 162 60.5t186 22.5q90 0 181 -20.5t169 -60.5q77 -40 126.5 -100t49.5 -137
q0 -36 -29 -81t-68 -85q-35 -36 -86 -81.5t-81 -69.5q4 -6 22 -9.5t42 -3.5h280v-360zM750 552q44 32 70 54.5t26 36.5q0 23 -24 41t-61 31q-38 13 -80 19.5t-79 6.5q-86 0 -163 -29.5t-77 -66.5q0 -12 28 -37.5t68 -54.5q36 -26 80 -54t64 -38q26 13 69 39t79 52zM518 1249
h-148v148h148v-148zM814 1249h-148v148h148v-148zM666 1458h-148v148h148v-148z" />
    <glyph glyph-name="uni06A0.fina" unicode="&#x6a0;" horiz-adv-x="1384" 
d="M985 -424h-207q-139 0 -260 34.5t-208 100.5q-88 67 -137.5 165.5t-49.5 227.5q0 63 23.5 114t61.5 94q34 38 77.5 68t85.5 52l8 4q-28 22 -59.5 52t-70.5 82q-34 44 -58.5 95t-24.5 97q0 56 32 108.5t100 101.5q64 46 161.5 75.5t218.5 29.5t217 -30t161 -76
q67 -46 102.5 -102t35.5 -109q0 -92 -83.5 -176.5t-213.5 -139.5l-84 -34q31 -18 85 -34t126 -16h360v-360h-288q-71 0 -133.5 18t-111.5 44q-51 27 -98 63.5t-75 60.5l-100 84q-24 -13 -69.5 -64.5t-45.5 -96.5q0 -50 26 -84.5t70 -53.5q46 -20 99 -27t118 -7h209v-361z
M913 727q0 28 -72.5 60t-162.5 32q-95 0 -162 -34t-67 -58q0 -44 58.5 -102t94.5 -80l37 -23l53 19q91 32 156 88t65 98zM596 1317h-148v148h148v-148zM892 1317h-148v148h148v-148zM744 1526h-148v148h148v-148z" />
    <glyph glyph-name="uni06A2.init" unicode="&#x6a2;" horiz-adv-x="1110" 
d="M827 1116q74 -92 117 -222t43 -296q0 -140 -62.5 -253t-158.5 -188q-99 -77 -215 -117t-227 -40h-394v360h371q135 0 237 41t149 117q-20 -3 -72 -7.5t-99 -4.5q-93 0 -166.5 26.5t-126.5 78.5q-50 49 -76 115t-26 144q0 171 104.5 296.5t257.5 125.5q94 0 182 -43.5
t162 -132.5zM692 780q-12 81 -72.5 146t-115.5 65q-48 0 -77.5 -35.5t-29.5 -81.5q0 -45 36 -75.5t95 -30.5q38 0 95.5 3.5t68.5 8.5zM509 -295h-148v148h148v-148z" />
    <glyph glyph-name="uni06A2.medi" unicode="&#x6a2;" horiz-adv-x="1171" 
d="M1171 0h-139q-71 0 -135.5 15.5t-121.5 39.5q-57 25 -102.5 51t-88.5 54q-45 -28 -85 -53t-105 -52t-119 -41t-138 -14h-207v360h133q83 0 143.5 10t82.5 17q-53 48 -84 110t-31 146q0 83 27.5 148.5t81.5 117.5q52 49 129.5 77t171.5 28q192 0 301.5 -108t109.5 -281
q0 -69 -33 -130.5t-85 -107.5q14 -5 28 -7t45 -7q37 -5 72 -9t84 -4h65v-360zM719 612q0 45 -37.5 80t-95.5 35q-66 0 -100.5 -35.5t-34.5 -79.5q0 -38 47.5 -75t89.5 -54q52 24 91.5 59.5t39.5 69.5zM650 -295h-148v148h148v-148z" />
    <glyph glyph-name="uni06A2.fina" unicode="&#x6a2;" horiz-adv-x="2154" 
d="M2154 0h-264q-93 0 -175 25.5t-150 72.5q-74 -47 -159.5 -72.5t-170.5 -25.5h-291q-393 0 -605 147.5t-212 442.5q0 99 15 188.5t16 95.5h272v-8q-5 -22 -14.5 -105t-9.5 -159q0 -113 146 -177.5t392 -64.5h322q-50 38 -96 116t-46 151q0 158 124.5 269.5t310.5 111.5
q185 0 312.5 -111t127.5 -279q0 -78 -54 -157t-85 -101h294v-360zM1647 468q25 30 39 56.5t14 61.5q0 61 -44 99t-97 38q-57 0 -96.5 -39t-39.5 -98q0 -28 16 -59.5t39 -58.5q18 -22 45 -43t40 -24q17 5 41.5 25t42.5 42zM1631 -295h-148v148h148v-148z" />
    <glyph glyph-name="uni06A3.init" unicode="&#x6a3;" horiz-adv-x="1110" 
d="M827 1116q74 -92 117 -222t43 -296q0 -140 -62.5 -253t-158.5 -188q-99 -77 -215 -117t-227 -40h-394v360h371q135 0 237 41t149 117q-20 -3 -72 -7.5t-99 -4.5q-93 0 -166.5 26.5t-126.5 78.5q-50 49 -76 115t-26 144q0 171 104.5 296.5t257.5 125.5q94 0 182 -43.5
t162 -132.5zM692 780q-12 81 -72.5 146t-115.5 65q-48 0 -77.5 -35.5t-29.5 -81.5q0 -45 36 -75.5t95 -30.5q38 0 95.5 3.5t68.5 8.5zM509 1533h-148v148h148v-148zM509 -295h-148v148h148v-148z" />
    <glyph glyph-name="uni06A3.medi" unicode="&#x6a3;" horiz-adv-x="1171" 
d="M1171 0h-139q-71 0 -135.5 15.5t-121.5 39.5q-57 25 -102.5 51t-88.5 54q-45 -28 -85 -53t-105 -52t-119 -41t-138 -14h-207v360h133q83 0 143.5 10t82.5 17q-53 48 -84 110t-31 146q0 83 27.5 148.5t81.5 117.5q52 49 129.5 77t171.5 28q192 0 301.5 -108t109.5 -281
q0 -69 -33 -130.5t-85 -107.5q14 -5 28 -7t45 -7q37 -5 72 -9t84 -4h65v-360zM719 612q0 45 -37.5 80t-95.5 35q-66 0 -100.5 -35.5t-34.5 -79.5q0 -38 47.5 -75t89.5 -54q52 24 91.5 59.5t39.5 69.5zM650 1255h-148v148h148v-148zM650 -295h-148v148h148v-148z" />
    <glyph glyph-name="uni06A3.fina" unicode="&#x6a3;" horiz-adv-x="2154" 
d="M2154 0h-264q-93 0 -175 25.5t-150 72.5q-74 -47 -159.5 -72.5t-170.5 -25.5h-291q-393 0 -605 147.5t-212 442.5q0 99 15 188.5t16 95.5h272v-8q-5 -22 -14.5 -105t-9.5 -159q0 -113 146 -177.5t392 -64.5h322q-50 38 -96 116t-46 151q0 158 124.5 269.5t310.5 111.5
q185 0 312.5 -111t127.5 -279q0 -78 -54 -157t-85 -101h294v-360zM1647 468q25 30 39 56.5t14 61.5q0 61 -44 99t-97 38q-57 0 -96.5 -39t-39.5 -98q0 -28 16 -59.5t39 -58.5q18 -22 45 -43t40 -24q17 5 41.5 25t42.5 42zM1631 1249h-148v148h148v-148zM1085 -295h-148v148
h148v-148z" />
    <glyph glyph-name="uni06A5.init" unicode="&#x6a5;" horiz-adv-x="1110" 
d="M827 1116q74 -92 117 -222t43 -296q0 -140 -62.5 -253t-158.5 -188q-99 -77 -215 -117t-227 -40h-394v360h371q135 0 237 41t149 117q-20 -3 -72 -7.5t-99 -4.5q-93 0 -166.5 26.5t-126.5 78.5q-50 49 -76 115t-26 144q0 171 104.5 296.5t257.5 125.5q94 0 182 -43.5
t162 -132.5zM692 780q-12 81 -72.5 146t-115.5 65q-48 0 -77.5 -35.5t-29.5 -81.5q0 -45 36 -75.5t95 -30.5q38 0 95.5 3.5t68.5 8.5zM361 -214h-148v148h148v-148zM657 -214h-148v148h148v-148zM509 -423h-148v148h148v-148z" />
    <glyph glyph-name="uni06A5.medi" unicode="&#x6a5;" horiz-adv-x="1171" 
d="M1171 0h-139q-71 0 -135.5 15.5t-121.5 39.5q-57 25 -102.5 51t-88.5 54q-45 -28 -85 -53t-105 -52t-119 -41t-138 -14h-207v360h133q83 0 143.5 10t82.5 17q-53 48 -84 110t-31 146q0 83 27.5 148.5t81.5 117.5q52 49 129.5 77t171.5 28q192 0 301.5 -108t109.5 -281
q0 -69 -33 -130.5t-85 -107.5q14 -5 28 -7t45 -7q37 -5 72 -9t84 -4h65v-360zM719 612q0 45 -37.5 80t-95.5 35q-66 0 -100.5 -35.5t-34.5 -79.5q0 -38 47.5 -75t89.5 -54q52 24 91.5 59.5t39.5 69.5zM502 -214h-148v148h148v-148zM798 -214h-148v148h148v-148zM650 -423
h-148v148h148v-148z" />
    <glyph glyph-name="uni06A5.fina" unicode="&#x6a5;" horiz-adv-x="2154" 
d="M2154 0h-264q-93 0 -175 25.5t-150 72.5q-74 -47 -159.5 -72.5t-170.5 -25.5h-291q-393 0 -605 147.5t-212 442.5q0 99 15 188.5t16 95.5h272v-8q-5 -22 -14.5 -105t-9.5 -159q0 -113 146 -177.5t392 -64.5h322q-50 38 -96 116t-46 151q0 158 124.5 269.5t310.5 111.5
q185 0 312.5 -111t127.5 -279q0 -78 -54 -157t-85 -101h294v-360zM1647 468q25 30 39 56.5t14 61.5q0 61 -44 99t-97 38q-57 0 -96.5 -39t-39.5 -98q0 -28 16 -59.5t39 -58.5q18 -22 45 -43t40 -24q17 5 41.5 25t42.5 42zM1483 -214h-148v148h148v-148zM1779 -214h-148v148
h148v-148zM1631 -423h-148v148h148v-148z" />
    <glyph glyph-name="uni06A6" unicode="&#x6a6;" horiz-adv-x="2095" arabic-form="isolated" 
d="M1972 590q0 -158 -79 -271.5t-204 -183.5q-128 -73 -290.5 -108t-339.5 -35h-45q-448 0 -669.5 148.5t-221.5 441.5q0 83 13 182.5t14 107.5h274v-4q-3 -15 -14 -118.5t-11 -155.5q0 -114 150.5 -178t464.5 -64h22q174 0 287 11t182 32q66 20 103 47.5t64 67.5
q-12 0 -27 -2t-40 -4q-24 -2 -52.5 -4t-51.5 -2q-185 0 -290 101t-105 263q0 178 108.5 300t253.5 122q204 0 354 -189.5t150 -504.5zM1677 772q-12 81 -72.5 146t-115.5 65q-48 0 -77.5 -35.5t-29.5 -81.5q0 -45 36 -75.5t95 -30.5q38 0 95.5 3.5t68.5 8.5zM1589 1735h-148
v148h148v-148zM1589 1526h-148v148h148v-148zM1321 1735h-148v148h148v-148zM1321 1526h-148v148h148v-148z" />
    <glyph glyph-name="uniFB6f" unicode="&#x6a6;" horiz-adv-x="2154" arabic-form="final" 
d="M2154 0h-264q-93 0 -175 25.5t-150 72.5q-74 -47 -159.5 -72.5t-170.5 -25.5h-291q-393 0 -605 147.5t-212 442.5q0 99 15 188.5t16 95.5h272v-8q-5 -22 -14.5 -105t-9.5 -159q0 -113 146 -177.5t392 -64.5h322q-50 38 -96 116t-46 151q0 158 124.5 269.5t310.5 111.5
q185 0 312.5 -111t127.5 -279q0 -78 -54 -157t-85 -101h294v-360zM1647 468q25 30 39 56.5t14 61.5q0 61 -44 99t-97 38q-57 0 -96.5 -39t-39.5 -98q0 -28 16 -59.5t39 -58.5q18 -22 45 -43t40 -24q17 5 41.5 25t42.5 42zM1765 1458h-148v148h148v-148zM1765 1249h-148v148
h148v-148zM1497 1458h-148v148h148v-148zM1497 1249h-148v148h148v-148z" />
    <glyph glyph-name="uniFB70" unicode="&#x6a6;" horiz-adv-x="1110" arabic-form="initial" 
d="M827 1116q74 -92 117 -222t43 -296q0 -140 -62.5 -253t-158.5 -188q-99 -77 -215 -117t-227 -40h-394v360h371q135 0 237 41t149 117q-20 -3 -72 -7.5t-99 -4.5q-93 0 -166.5 26.5t-126.5 78.5q-50 49 -76 115t-26 144q0 171 104.5 296.5t257.5 125.5q94 0 182 -43.5
t162 -132.5zM692 780q-12 81 -72.5 146t-115.5 65q-48 0 -77.5 -35.5t-29.5 -81.5q0 -45 36 -75.5t95 -30.5q38 0 95.5 3.5t68.5 8.5zM643 1742h-148v148h148v-148zM643 1533h-148v148h148v-148zM375 1742h-148v148h148v-148zM375 1533h-148v148h148v-148z" />
    <glyph glyph-name="uniFB71" unicode="&#x6a6;" horiz-adv-x="1171" arabic-form="medial" 
d="M1171 0h-139q-71 0 -135.5 15.5t-121.5 39.5q-57 25 -102.5 51t-88.5 54q-45 -28 -85 -53t-105 -52t-119 -41t-138 -14h-207v360h133q83 0 143.5 10t82.5 17q-53 48 -84 110t-31 146q0 83 27.5 148.5t81.5 117.5q52 49 129.5 77t171.5 28q192 0 301.5 -108t109.5 -281
q0 -69 -33 -130.5t-85 -107.5q14 -5 28 -7t45 -7q37 -5 72 -9t84 -4h65v-360zM719 612q0 45 -37.5 80t-95.5 35q-66 0 -100.5 -35.5t-34.5 -79.5q0 -38 47.5 -75t89.5 -54q52 24 91.5 59.5t39.5 69.5zM784 1464h-148v148h148v-148zM784 1255h-148v148h148v-148zM516 1464
h-148v148h148v-148zM516 1255h-148v148h148v-148z" />
    <glyph glyph-name="uni06A7.fina" unicode="&#x6a7;" horiz-adv-x="2165" 
d="M1702 383q-13 135 -63.5 215t-102.5 80q-55 0 -92 -43t-37 -103t88 -101t207 -48zM1946 16q-63 -137 -154 -223.5t-217 -134.5q-120 -46 -275.5 -64t-357.5 -18q-403 0 -611 151t-208 439q0 115 16.5 198t18.5 93h266v-8q-4 -21 -14.5 -101t-10.5 -170q0 -113 142 -176
t403 -63q186 0 320 20t218 44q90 27 123.5 44t39.5 21q-250 28 -382.5 155t-132.5 303q0 184 118.5 318.5t285.5 134.5q179 0 308 -162t153 -450q10 -2 70.5 -4.5t91.5 -2.5h8v-360h-4q-55 0 -123 6t-92 10zM1525 1221h-148v148h148v-148z" />
    <glyph glyph-name="uni06A8.fina" unicode="&#x6a8;" horiz-adv-x="2165" 
d="M1702 383q-13 135 -63.5 215t-102.5 80q-55 0 -92 -43t-37 -103t88 -101t207 -48zM1946 16q-63 -137 -154 -223.5t-217 -134.5q-120 -46 -275.5 -64t-357.5 -18q-403 0 -611 151t-208 439q0 115 16.5 198t18.5 93h266v-8q-4 -21 -14.5 -101t-10.5 -170q0 -113 142 -176
t403 -63q186 0 320 20t218 44q90 27 123.5 44t39.5 21q-250 28 -382.5 155t-132.5 303q0 184 118.5 318.5t285.5 134.5q179 0 308 -162t153 -450q10 -2 70.5 -4.5t91.5 -2.5h8v-360h-4q-55 0 -123 6t-92 10zM1377 1221h-148v148h148v-148zM1673 1221h-148v148h148v-148z
M1525 1430h-148v148h148v-148z" />
    <glyph glyph-name="uni06AA.init" unicode="&#x6aa;" horiz-adv-x="2222" 
d="M2058 424q0 -182 -138 -305q-133 -119 -322 -119h-1668v360h1716q152 0 152 73q0 32 -52 60q-43 22 -88 29l-807 117q-87 13 -148 81q-66 75 -66 184q0 177 254 327l517 306v-299l-390 -234q-80 -48 -80 -81q0 -31 51 -55q36 -17 72 -22l724 -101q112 -16 192.5 -110
t80.5 -211z" />
    <glyph glyph-name="uni06AA.medi" unicode="&#x6aa;" horiz-adv-x="2222" 
d="M2222 0h-156q-87 0 -135.5 19.5t-112.5 77.5q-128 -97 -301 -97h-1587v360h1635q152 0 152 73q0 32 -52 60q-42 22 -88 29l-726 117q-88 14 -148 82q-66 74 -66 183q0 177 254 327l517 306v-299l-390 -234q-80 -48 -80 -81q0 -58 123 -77l643 -101q114 -18 194 -116
t79 -220q63 -49 132 -49h113v-360zM2136 0z" />
    <glyph glyph-name="uni06AA.fina" unicode="&#x6aa;" horiz-adv-x="2222" 
d="M2222 0h-156q-87 0 -135.5 19.5t-112.5 77.5q-128 -97 -301 -97h-559q-833 0 -833 590q0 173 37 284h266v-10q-27 -135 -27 -262q0 -242 557 -242h607q152 0 152 73q0 32 -52 60q-42 22 -88 29l-726 117q-88 14 -148 82q-66 74 -66 183q0 177 254 327l517 306v-299
l-390 -234q-80 -48 -80 -81q0 -58 123 -77l643 -101q114 -18 194 -116t79 -220q63 -49 132 -49h113v-360zM2136 0z" />
    <glyph glyph-name="uni06AB.init" unicode="&#x6ab;" horiz-adv-x="1139" 
d="M1079 1288l-594 -194q-53 -17 -76.5 -34.5t-23.5 -31.5q0 -18 35.5 -46t87.5 -62l256 -168q106 -70 158.5 -149.5t52.5 -188.5q0 -186 -118.5 -300t-301.5 -114h-625v360h633q69 0 110.5 24.5t41.5 59.5q0 29 -32.5 63t-107.5 85l-282 190q-125 82 -167 139t-42 123
q0 83 71 156t203 121l721 266v-299zM1079 1124q0 -79 -56 -134t-133 -55q-78 0 -133 55.5t-55 133.5q0 77 55.5 132.5t132.5 55.5q78 0 133.5 -55t55.5 -133zM983 1122q0 40 -28 68t-69 28q-40 0 -68 -28t-28 -68q0 -38 29 -66t67 -28q39 0 68 28t29 66z" />
    <glyph glyph-name="uni06AB.medi" unicode="&#x6ab;" horiz-adv-x="1225" 
d="M1225 0h-156q-77 0 -142 22t-108 58q-56 -40 -118 -60t-146 -20h-625v360h633q69 0 110.5 24.5t41.5 59.5q0 29 -32.5 63t-107.5 85l-282 190q-125 82 -167 139t-42 123q0 83 71 156t203 121l721 266v-299l-594 -194q-53 -17 -76.5 -34.5t-23.5 -31.5q0 -18 35.5 -46
t87.5 -62l256 -168q106 -70 158.5 -149.5t52.5 -188.5q29 -27 62.5 -40.5t74.5 -13.5h113v-360zM1139 0zM1079 1124q0 -79 -56 -134t-133 -55q-78 0 -133 55.5t-55 133.5q0 77 55.5 132.5t132.5 55.5q78 0 133.5 -55t55.5 -133zM983 1122q0 40 -28 68t-69 28q-40 0 -68 -28
t-28 -68q0 -38 29 -66t67 -28q39 0 68 28t29 66z" />
    <glyph glyph-name="uni06AB.fina" unicode="&#x6ab;" horiz-adv-x="2163" 
d="M1501 360q69 0 110.5 24.5t41.5 59.5q0 29 -32.5 63t-107.5 85l-282 190q-125 82 -167 140t-42 122q0 89 72 159t202 118l721 266v-299l-594 -194q-53 -17 -76.5 -34.5t-23.5 -31.5q0 -18 35.5 -46t87.5 -62l256 -168q106 -70 158.5 -149.5t52.5 -188.5
q29 -27 62.5 -40.5t74.5 -13.5h113v-360h-156q-80 0 -144.5 22.5t-105.5 57.5q-56 -40 -118 -60t-146 -20h-535q-217 0 -375.5 40.5t-259.5 116.5q-100 76 -149 185t-49 248q0 97 15.5 181.5t21.5 102.5h266v-10q-7 -35 -17 -112.5t-10 -149.5q0 -114 134 -178t423 -64h543z
M2077 0zM2017 1124q0 -79 -56 -134t-133 -55q-78 0 -133 55.5t-55 133.5q0 77 55.5 132.5t132.5 55.5q78 0 133.5 -55t55.5 -133zM1921 1122q0 40 -28 68t-69 28q-40 0 -68 -28t-28 -68q0 -38 29 -66t67 -28q39 0 68 28t29 66z" />
    <glyph glyph-name="uni06AD" unicode="&#x6ad;" horiz-adv-x="1749" arabic-form="isolated" 
d="M1465 162.5q-120 -162.5 -316 -162.5h-563q-99 0 -183 17.5t-144 59.5q-63 43 -99.5 120t-36.5 200q0 74 7 135t9 72h271v-8q-1 -5 -6 -53.5t-5 -81.5q0 -49 46.5 -75t140.5 -26h518q90 0 146.5 64t56.5 174v956h278v-956q0 -273 -120 -435.5zM1006 903
q0 -85 -101 -135.5t-262 -50.5v94q116 0 193 21t77 61q0 18 -19.5 30t-55.5 21l-76 19q-53 13 -85 45.5t-32 87.5q0 70 69.5 113.5t201.5 43.5v-90q-93 0 -138 -17.5t-45 -47.5q0 -18 20.5 -31t55.5 -22l84 -21q45 -11 79 -37.5t34 -83.5zM737 1406h-148v148h148v-148z
M1033 1406h-148v148h148v-148zM885 1615h-148v148h148v-148z" />
    <glyph glyph-name="uniFBD4" unicode="&#x6ad;" horiz-adv-x="1843" arabic-form="final" 
d="M1745 0q-107 0 -186.5 45t-112.5 102q-33 -58 -111 -102.5t-186 -44.5h-563q-99 0 -183 17.5t-144 59.5q-63 43 -99.5 120t-36.5 200q0 74 7 135t9 72h271v-8q-1 -5 -6 -53.5t-5 -81.5q0 -49 46.5 -75t140.5 -26h518q90 0 146.5 64t56.5 174v956h278v-956
q0 -112 56.5 -175t148.5 -63h53v-360h-98zM1006 903q0 -85 -101 -135.5t-262 -50.5v94q116 0 193 21t77 61q0 18 -19.5 30t-55.5 21l-76 19q-53 12 -85 45t-32 88q0 70 69.5 113.5t201.5 43.5v-90q-93 0 -138 -17.5t-45 -47.5q0 -18 20 -31.5t56 -21.5l84 -21q45 -10 79 -37
t34 -84zM1749 0zM737 1406h-148v148h148v-148zM1033 1406h-148v148h148v-148zM885 1615h-148v148h148v-148z" />
    <glyph glyph-name="uniFBD5" unicode="&#x6ad;" horiz-adv-x="1139" arabic-form="initial" 
d="M1079 1288l-594 -194q-53 -17 -76.5 -34.5t-23.5 -31.5q0 -18 35.5 -46t87.5 -62l256 -168q106 -70 158.5 -149.5t52.5 -188.5q0 -186 -118.5 -300t-301.5 -114h-625v360h633q69 0 110.5 24.5t41.5 59.5q0 29 -32.5 63t-107.5 85l-282 190q-125 82 -167 139t-42 123
q0 83 71 156t203 121l721 266v-299zM237 1406h-148v148h148v-148zM533 1406h-148v148h148v-148zM385 1615h-148v148h148v-148z" />
    <glyph glyph-name="uniFBD6" unicode="&#x6ad;" horiz-adv-x="1225" arabic-form="medial" 
d="M1225 0h-156q-77 0 -142 22t-108 58q-56 -40 -118 -60t-146 -20h-625v360h633q69 0 110.5 24.5t41.5 59.5q0 29 -32.5 63t-107.5 85l-282 190q-125 82 -167 139t-42 123q0 83 71 156t203 121l721 266v-299l-594 -194q-53 -17 -76.5 -34.5t-23.5 -31.5q0 -18 35.5 -46
t87.5 -62l256 -168q106 -70 158.5 -149.5t52.5 -188.5q29 -27 62.5 -40.5t74.5 -13.5h113v-360zM1139 0zM237 1406h-148v148h148v-148zM533 1406h-148v148h148v-148zM385 1615h-148v148h148v-148z" />
    <glyph glyph-name="uni06AE.init" unicode="&#x6ae;" horiz-adv-x="1139" 
d="M1079 1288l-594 -194q-53 -17 -76.5 -34.5t-23.5 -31.5q0 -18 35.5 -46t87.5 -62l256 -168q106 -70 158.5 -149.5t52.5 -188.5q0 -186 -118.5 -300t-301.5 -114h-625v360h633q69 0 110.5 24.5t41.5 59.5q0 29 -32.5 63t-107.5 85l-282 190q-125 82 -167 139t-42 123
q0 83 71 156t203 121l721 266v-299zM237 -214h-148v148h148v-148zM533 -214h-148v148h148v-148zM385 -423h-148v148h148v-148z" />
    <glyph glyph-name="uni06AE.medi" unicode="&#x6ae;" horiz-adv-x="1225" 
d="M1225 0h-156q-77 0 -142 22t-108 58q-56 -40 -118 -60t-146 -20h-625v360h633q69 0 110.5 24.5t41.5 59.5q0 29 -32.5 63t-107.5 85l-282 190q-125 82 -167 139t-42 123q0 83 71 156t203 121l721 266v-299l-594 -194q-53 -17 -76.5 -34.5t-23.5 -31.5q0 -18 35.5 -46
t87.5 -62l256 -168q106 -70 158.5 -149.5t52.5 -188.5q29 -27 62.5 -40.5t74.5 -13.5h113v-360zM1139 0zM237 -214h-148v148h148v-148zM533 -214h-148v148h148v-148zM385 -423h-148v148h148v-148z" />
    <glyph glyph-name="uni06AE.fina" unicode="&#x6ae;" horiz-adv-x="1843" 
d="M1745 0q-107 0 -186.5 45t-112.5 102q-33 -58 -111 -102.5t-186 -44.5h-563q-99 0 -183 17.5t-144 59.5q-63 43 -99.5 120t-36.5 200q0 74 7 135t9 72h271v-8q-1 -5 -6 -53.5t-5 -81.5q0 -49 46.5 -75t140.5 -26h518q90 0 146.5 64t56.5 174v956h278v-956
q0 -112 56.5 -175t148.5 -63h53v-360h-98zM1006 903q0 -85 -101 -135.5t-262 -50.5v94q116 0 193 21t77 61q0 18 -19.5 30t-55.5 21l-76 19q-53 12 -85 45t-32 88q0 70 69.5 113.5t201.5 43.5v-90q-93 0 -138 -17.5t-45 -47.5q0 -18 20 -31.5t56 -21.5l84 -21q45 -10 79 -37
t34 -84zM1749 0zM737 -214h-148v148h148v-148zM1033 -214h-148v148h148v-148zM885 -423h-148v148h148v-148z" />
    <glyph glyph-name="uni06B0.init" unicode="&#x6b0;" horiz-adv-x="1139" 
d="M1079 1288l-594 -194q-53 -17 -76.5 -34.5t-23.5 -31.5q0 -18 35.5 -46t87.5 -62l256 -168q106 -70 158.5 -149.5t52.5 -188.5q0 -186 -118.5 -300t-301.5 -114h-625v360h633q69 0 110.5 24.5t41.5 59.5q0 29 -32.5 63t-107.5 85l-282 190q-125 82 -167 139t-42 123
q0 83 71 156t203 121l721 266v-299zM1065 1681l-791 -290v100l791 291v-101zM1079 1124q0 -79 -56 -134t-133 -55q-78 0 -133 55.5t-55 133.5q0 77 55.5 132.5t132.5 55.5q78 0 133.5 -55t55.5 -133zM983 1122q0 40 -28 68t-69 28q-40 0 -68 -28t-28 -68q0 -38 29 -66
t67 -28q39 0 68 28t29 66z" />
    <glyph glyph-name="uni06B0.medi" unicode="&#x6b0;" horiz-adv-x="1225" 
d="M1225 0h-155q-80 0 -144.5 22.5t-105.5 57.5q-56 -40 -118 -60t-146 -20h-626v360h634q69 0 110.5 24.5t41.5 59.5q0 29 -32.5 63.5t-107.5 84.5l-282 190q-124 83 -166.5 140.5t-42.5 121.5q0 89 72 159t202 118l721 266v-299l-594 -194q-50 -16 -75 -34t-25 -32
q0 -18 35.5 -46t87.5 -62l256 -168q106 -70 158.5 -149.5t52.5 -188.5q29 -27 62.5 -40.5t74.5 -13.5h112v-360zM1066 1681l-791 -290v100l791 291v-101zM1139 0zM1079 1124q0 -79 -56 -134t-133 -55q-78 0 -133 55.5t-55 133.5q0 77 55.5 132.5t132.5 55.5q78 0 133.5 -55
t55.5 -133zM983 1122q0 40 -28 68t-69 28q-40 0 -68 -28t-28 -68q0 -38 29 -66t67 -28q39 0 68 28t29 66z" />
    <glyph glyph-name="uni06B0.fina" unicode="&#x6b0;" horiz-adv-x="2163" 
d="M1501 360q69 0 110.5 24.5t41.5 59.5q0 29 -32.5 63t-107.5 85l-282 190q-125 82 -167 140t-42 122q0 89 72 159t202 118l721 266v-299l-594 -194q-53 -17 -76.5 -34.5t-23.5 -31.5q0 -18 35.5 -46t87.5 -62l256 -168q106 -70 158.5 -149.5t52.5 -188.5
q29 -27 62.5 -40.5t74.5 -13.5h113v-360h-156q-80 0 -144.5 22.5t-105.5 57.5q-56 -40 -118 -60t-146 -20h-535q-217 0 -375.5 40.5t-259.5 116.5q-100 76 -149 185t-49 248q0 97 15.5 181.5t21.5 102.5h266v-10q-7 -35 -17 -112.5t-10 -149.5q0 -114 134 -178t423 -64h543z
M2003 1681l-791 -290v100l791 291v-101zM2077 0zM2017 1124q0 -79 -56 -134t-133 -55q-78 0 -133 55.5t-55 133.5q0 77 55.5 132.5t132.5 55.5q78 0 133.5 -55t55.5 -133zM1921 1122q0 40 -28 68t-69 28q-40 0 -68 -28t-28 -68q0 -38 29 -66t67 -28q39 0 68 28t29 66z" />
    <glyph glyph-name="uni06B1" unicode="&#x6b1;" horiz-adv-x="2077" arabic-form="isolated" 
d="M1501 360q69 0 110.5 24.5t41.5 59.5q0 29 -32.5 63t-107.5 85l-282 190q-125 82 -167 140t-42 122q0 89 72 159t202 118l721 266v-299l-594 -194q-53 -17 -76.5 -34.5t-23.5 -31.5q0 -18 35.5 -46t87.5 -62l256 -168q106 -70 158.5 -149.5t52.5 -188.5
q0 -186 -118.5 -300t-301.5 -114h-535q-217 0 -375.5 40.5t-259.5 116.5q-100 76 -149 185t-49 248q0 97 15.5 181.5t21.5 102.5h266v-10q-7 -35 -17 -112.5t-10 -149.5q0 -114 134 -178t423 -64h543zM2003 1681l-791 -290v100l791 291v-101zM1551 1734h-148v148h148v-148z
M1819 1734h-148v148h148v-148z" />
    <glyph glyph-name="uniFB9B" unicode="&#x6b1;" horiz-adv-x="2163" arabic-form="final" 
d="M1501 360q69 0 110.5 24.5t41.5 59.5q0 29 -32.5 63t-107.5 85l-282 190q-125 82 -167 140t-42 122q0 89 72 159t202 118l721 266v-299l-594 -194q-53 -17 -76.5 -34.5t-23.5 -31.5q0 -18 35.5 -46t87.5 -62l256 -168q106 -70 158.5 -149.5t52.5 -188.5
q29 -27 62.5 -40.5t74.5 -13.5h113v-360h-156q-80 0 -144.5 22.5t-105.5 57.5q-56 -40 -118 -60t-146 -20h-535q-217 0 -375.5 40.5t-259.5 116.5q-100 76 -149 185t-49 248q0 97 15.5 181.5t21.5 102.5h266v-10q-7 -35 -17 -112.5t-10 -149.5q0 -114 134 -178t423 -64h543z
M2003 1681l-791 -290v100l791 291v-101zM2077 0zM1551 1734h-148v148h148v-148zM1819 1734h-148v148h148v-148z" />
    <glyph glyph-name="uniFB9C" unicode="&#x6b1;" horiz-adv-x="1139" arabic-form="initial" 
d="M1079 1288l-594 -194q-53 -17 -76.5 -34.5t-23.5 -31.5q0 -18 35.5 -46t87.5 -62l256 -168q106 -70 158.5 -149.5t52.5 -188.5q0 -186 -118.5 -300t-301.5 -114h-625v360h633q69 0 110.5 24.5t41.5 59.5q0 29 -32.5 63t-107.5 85l-282 190q-125 82 -167 139t-42 123
q0 83 71 156t203 121l721 266v-299zM1065 1681l-791 -290v100l791 291v-101zM551 1734h-148v148h148v-148zM819 1734h-148v148h148v-148z" />
    <glyph glyph-name="uniFB9D" unicode="&#x6b1;" horiz-adv-x="1225" arabic-form="medial" 
d="M1225 0h-155q-80 0 -144.5 22.5t-105.5 57.5q-56 -40 -118 -60t-146 -20h-626v360h634q69 0 110.5 24.5t41.5 59.5q0 29 -32.5 63.5t-107.5 84.5l-282 190q-124 83 -166.5 140.5t-42.5 121.5q0 89 72 159t202 118l721 266v-299l-594 -194q-50 -16 -75 -34t-25 -32
q0 -18 35.5 -46t87.5 -62l256 -168q106 -70 158.5 -149.5t52.5 -188.5q29 -27 62.5 -40.5t74.5 -13.5h112v-360zM1066 1681l-791 -290v100l791 291v-101zM1139 0zM551 1734h-148v148h148v-148zM819 1734h-148v148h148v-148z" />
    <glyph glyph-name="uni06B2.init" unicode="&#x6b2;" horiz-adv-x="1139" 
d="M1079 1288l-594 -194q-53 -17 -76.5 -34.5t-23.5 -31.5q0 -18 35.5 -46t87.5 -62l256 -168q106 -70 158.5 -149.5t52.5 -188.5q0 -186 -118.5 -300t-301.5 -114h-625v360h633q69 0 110.5 24.5t41.5 59.5q0 29 -32.5 63t-107.5 85l-282 190q-125 82 -167 139t-42 123
q0 83 71 156t203 121l721 266v-299zM1065 1681l-791 -290v100l791 291v-101zM251 -295h-148v148h148v-148zM519 -295h-148v148h148v-148z" />
    <glyph glyph-name="uni06B2.medi" unicode="&#x6b2;" horiz-adv-x="1225" 
d="M1225 0h-155q-80 0 -144.5 22.5t-105.5 57.5q-56 -40 -118 -60t-146 -20h-626v360h634q69 0 110.5 24.5t41.5 59.5q0 29 -32.5 63.5t-107.5 84.5l-282 190q-124 83 -166.5 140.5t-42.5 121.5q0 89 72 159t202 118l721 266v-299l-594 -194q-50 -16 -75 -34t-25 -32
q0 -18 35.5 -46t87.5 -62l256 -168q106 -70 158.5 -149.5t52.5 -188.5q29 -27 62.5 -40.5t74.5 -13.5h112v-360zM1066 1681l-791 -290v100l791 291v-101zM1139 0zM251 -295h-148v148h148v-148zM519 -295h-148v148h148v-148z" />
    <glyph glyph-name="uni06B2.fina" unicode="&#x6b2;" horiz-adv-x="2163" 
d="M1501 360q69 0 110.5 24.5t41.5 59.5q0 29 -32.5 63t-107.5 85l-282 190q-125 82 -167 140t-42 122q0 89 72 159t202 118l721 266v-299l-594 -194q-53 -17 -76.5 -34.5t-23.5 -31.5q0 -18 35.5 -46t87.5 -62l256 -168q106 -70 158.5 -149.5t52.5 -188.5
q29 -27 62.5 -40.5t74.5 -13.5h113v-360h-156q-80 0 -144.5 22.5t-105.5 57.5q-56 -40 -118 -60t-146 -20h-535q-217 0 -375.5 40.5t-259.5 116.5q-100 76 -149 185t-49 248q0 97 15.5 181.5t21.5 102.5h266v-10q-7 -35 -17 -112.5t-10 -149.5q0 -114 134 -178t423 -64h543z
M2003 1681l-791 -290v100l791 291v-101zM2077 0zM1151 -295h-148v148h148v-148zM1419 -295h-148v148h148v-148z" />
    <glyph glyph-name="uni06B3" unicode="&#x6b3;" horiz-adv-x="2077" arabic-form="isolated" 
d="M1501 360q69 0 110.5 24.5t41.5 59.5q0 29 -32.5 63t-107.5 85l-282 190q-125 82 -167 140t-42 122q0 89 72 159t202 118l721 266v-299l-594 -194q-53 -17 -76.5 -34.5t-23.5 -31.5q0 -18 35.5 -46t87.5 -62l256 -168q106 -70 158.5 -149.5t52.5 -188.5
q0 -186 -118.5 -300t-301.5 -114h-535q-217 0 -375.5 40.5t-259.5 116.5q-100 76 -149 185t-49 248q0 97 15.5 181.5t21.5 102.5h266v-10q-7 -35 -17 -112.5t-10 -149.5q0 -114 134 -178t423 -64h543zM2003 1681l-791 -290v100l791 291v-101zM1285 -211h-148v148h148v-148z
M1285 -420h-148v148h148v-148z" />
    <glyph glyph-name="uniFB97" unicode="&#x6b3;" horiz-adv-x="2163" arabic-form="final" 
d="M1501 360q69 0 110.5 24.5t41.5 59.5q0 29 -32.5 63t-107.5 85l-282 190q-125 82 -167 140t-42 122q0 89 72 159t202 118l721 266v-299l-594 -194q-53 -17 -76.5 -34.5t-23.5 -31.5q0 -18 35.5 -46t87.5 -62l256 -168q106 -70 158.5 -149.5t52.5 -188.5
q29 -27 62.5 -40.5t74.5 -13.5h113v-360h-156q-80 0 -144.5 22.5t-105.5 57.5q-56 -40 -118 -60t-146 -20h-535q-217 0 -375.5 40.5t-259.5 116.5q-100 76 -149 185t-49 248q0 97 15.5 181.5t21.5 102.5h266v-10q-7 -35 -17 -112.5t-10 -149.5q0 -114 134 -178t423 -64h543z
M2003 1681l-791 -290v100l791 291v-101zM2077 0zM1285 -211h-148v148h148v-148zM1285 -420h-148v148h148v-148z" />
    <glyph glyph-name="uniFB98" unicode="&#x6b3;" horiz-adv-x="1139" arabic-form="initial" 
d="M1079 1288l-594 -194q-53 -17 -76.5 -34.5t-23.5 -31.5q0 -18 35.5 -46t87.5 -62l256 -168q106 -70 158.5 -149.5t52.5 -188.5q0 -186 -118.5 -300t-301.5 -114h-625v360h633q69 0 110.5 24.5t41.5 59.5q0 29 -32.5 63t-107.5 85l-282 190q-125 82 -167 139t-42 123
q0 83 71 156t203 121l721 266v-299zM1065 1681l-791 -290v100l791 291v-101zM385 -211h-148v148h148v-148zM385 -420h-148v148h148v-148z" />
    <glyph glyph-name="uniFB99" unicode="&#x6b3;" horiz-adv-x="1225" arabic-form="medial" 
d="M1225 0h-155q-80 0 -144.5 22.5t-105.5 57.5q-56 -40 -118 -60t-146 -20h-626v360h634q69 0 110.5 24.5t41.5 59.5q0 29 -32.5 63.5t-107.5 84.5l-282 190q-124 83 -166.5 140.5t-42.5 121.5q0 89 72 159t202 118l721 266v-299l-594 -194q-50 -16 -75 -34t-25 -32
q0 -18 35.5 -46t87.5 -62l256 -168q106 -70 158.5 -149.5t52.5 -188.5q29 -27 62.5 -40.5t74.5 -13.5h112v-360zM1066 1681l-791 -290v100l791 291v-101zM1139 0zM385 -211h-148v148h148v-148zM385 -420h-148v148h148v-148z" />
    <glyph glyph-name="uni06B4.init" unicode="&#x6b4;" horiz-adv-x="1139" 
d="M1079 1288l-594 -194q-53 -17 -76.5 -34.5t-23.5 -31.5q0 -18 35.5 -46t87.5 -62l256 -168q106 -70 158.5 -149.5t52.5 -188.5q0 -186 -118.5 -300t-301.5 -114h-625v360h633q69 0 110.5 24.5t41.5 59.5q0 29 -32.5 63t-107.5 85l-282 190q-125 82 -167 139t-42 123
q0 83 71 156t203 121l721 266v-299zM1065 1681l-791 -290v100l791 291v-101zM337 1690h-148v148h148v-148zM633 1690h-148v148h148v-148zM485 1899h-148v148h148v-148z" />
    <glyph glyph-name="uni06B4.medi" unicode="&#x6b4;" horiz-adv-x="1225" 
d="M1225 0h-155q-80 0 -144.5 22.5t-105.5 57.5q-56 -40 -118 -60t-146 -20h-626v360h634q69 0 110.5 24.5t41.5 59.5q0 29 -32.5 63.5t-107.5 84.5l-282 190q-124 83 -166.5 140.5t-42.5 121.5q0 89 72 159t202 118l721 266v-299l-594 -194q-50 -16 -75 -34t-25 -32
q0 -18 35.5 -46t87.5 -62l256 -168q106 -70 158.5 -149.5t52.5 -188.5q29 -27 62.5 -40.5t74.5 -13.5h112v-360zM1066 1681l-791 -290v100l791 291v-101zM1139 0zM337 1690h-148v148h148v-148zM633 1690h-148v148h148v-148zM485 1899h-148v148h148v-148z" />
    <glyph glyph-name="uni06B4.fina" unicode="&#x6b4;" horiz-adv-x="2163" 
d="M1501 360q69 0 110.5 24.5t41.5 59.5q0 29 -32.5 63t-107.5 85l-282 190q-125 82 -167 140t-42 122q0 89 72 159t202 118l721 266v-299l-594 -194q-53 -17 -76.5 -34.5t-23.5 -31.5q0 -18 35.5 -46t87.5 -62l256 -168q106 -70 158.5 -149.5t52.5 -188.5
q29 -27 62.5 -40.5t74.5 -13.5h113v-360h-156q-80 0 -144.5 22.5t-105.5 57.5q-56 -40 -118 -60t-146 -20h-535q-217 0 -375.5 40.5t-259.5 116.5q-100 76 -149 185t-49 248q0 97 15.5 181.5t21.5 102.5h266v-10q-7 -35 -17 -112.5t-10 -149.5q0 -114 134 -178t423 -64h543z
M2003 1681l-791 -290v100l791 291v-101zM2077 0zM1337 1690h-148v148h148v-148zM1633 1690h-148v148h148v-148zM1485 1899h-148v148h148v-148z" />
    <glyph glyph-name="uni06B5.init" unicode="&#x6b5;" horiz-adv-x="698" 
d="M537 598q0 -263 -116.5 -430.5t-322.5 -167.5h-168v360h123q42 0 79.5 14.5t64.5 43.5q30 32 45.5 73.5t15.5 106.5v956h279v-956zM591 1945l-127 -286h-98l-127 286h107l69 -189l69 189h107z" />
    <glyph glyph-name="uni06B5.medi" unicode="&#x6b5;" horiz-adv-x="797" 
d="M797 0h-103q-106 0 -186 45t-113 102q-42 -68 -118.5 -107.5t-178.5 -39.5h-168v360h123q89 0 146 61.5t57 176.5v956h279v-956q0 -107 54 -172.5t150 -65.5h58v-360zM698 0zM591 1945l-127 -286h-98l-127 286h107l69 -189l69 189h107z" />
    <glyph glyph-name="uni06B5.fina" unicode="&#x6b5;" horiz-adv-x="1675" 
d="M1675 0h-98q-58 0 -102.5 11t-59.5 22q-19 -219 -196 -338t-494 -119q-328 0 -465 119t-137 405q0 107 15 218.5t16 119.5h272v-8q-3 -21 -15 -133t-12 -195q0 -91 80 -128t248 -37q201 0 306.5 49t105.5 137v1431h278v-956q0 -106 54.5 -172t150.5 -66h53v-360zM1579 0z
M1461 1945l-127 -286h-98l-127 286h107l69 -189l69 189h107z" />
    <glyph glyph-name="uni06B6.init" unicode="&#x6b6;" horiz-adv-x="698" 
d="M537 598q0 -263 -116.5 -430.5t-322.5 -167.5h-168v360h123q42 0 79.5 14.5t64.5 43.5q30 32 45.5 73.5t15.5 106.5v956h279v-956zM485 1659h-148v148h148v-148z" />
    <glyph glyph-name="uni06B6.medi" unicode="&#x6b6;" horiz-adv-x="797" 
d="M797 0h-103q-106 0 -186 45t-113 102q-42 -68 -118.5 -107.5t-178.5 -39.5h-168v360h123q89 0 146 61.5t57 176.5v956h279v-956q0 -107 54 -172.5t150 -65.5h58v-360zM698 0zM485 1659h-148v148h148v-148z" />
    <glyph glyph-name="uni06B6.fina" unicode="&#x6b6;" horiz-adv-x="1675" 
d="M1675 0h-98q-58 0 -102.5 11t-59.5 22q-19 -219 -196 -338t-494 -119q-328 0 -465 119t-137 405q0 107 15 218.5t16 119.5h272v-8q-3 -21 -15 -133t-12 -195q0 -91 80 -128t248 -37q201 0 306.5 49t105.5 137v1431h278v-956q0 -106 54.5 -172t150.5 -66h53v-360zM1579 0z
M1355 1659h-148v148h148v-148z" />
    <glyph glyph-name="uni06B7.init" unicode="&#x6b7;" horiz-adv-x="698" 
d="M537 598q0 -263 -116.5 -430.5t-322.5 -167.5h-168v360h123q42 0 79.5 14.5t64.5 43.5q30 32 45.5 73.5t15.5 106.5v956h279v-956zM337 1659h-148v148h148v-148zM633 1659h-148v148h148v-148zM485 1868h-148v148h148v-148z" />
    <glyph glyph-name="uni06B7.medi" unicode="&#x6b7;" horiz-adv-x="797" 
d="M797 0h-103q-106 0 -186 45t-113 102q-42 -68 -118.5 -107.5t-178.5 -39.5h-168v360h123q89 0 146 61.5t57 176.5v956h279v-956q0 -107 54 -172.5t150 -65.5h58v-360zM698 0zM337 1659h-148v148h148v-148zM633 1659h-148v148h148v-148zM485 1868h-148v148h148v-148z" />
    <glyph glyph-name="uni06B7.fina" unicode="&#x6b7;" horiz-adv-x="1675" 
d="M1675 0h-98q-58 0 -102.5 11t-59.5 22q-19 -219 -196 -338t-494 -119q-328 0 -465 119t-137 405q0 107 15 218.5t16 119.5h272v-8q-3 -21 -15 -133t-12 -195q0 -91 80 -128t248 -37q201 0 306.5 49t105.5 137v1431h278v-956q0 -106 54.5 -172t150.5 -66h53v-360zM1579 0z
M1207 1659h-148v148h148v-148zM1503 1659h-148v148h148v-148zM1355 1868h-148v148h148v-148z" />
    <glyph glyph-name="uni06B8.init" unicode="&#x6b8;" horiz-adv-x="698" 
d="M537 598q0 -263 -116.5 -430.5t-322.5 -167.5h-168v360h123q42 0 79.5 14.5t64.5 43.5q30 32 45.5 73.5t15.5 106.5v956h279v-956zM237 -214h-148v148h148v-148zM533 -214h-148v148h148v-148zM385 -423h-148v148h148v-148z" />
    <glyph glyph-name="uni06B8.medi" unicode="&#x6b8;" horiz-adv-x="797" 
d="M797 0h-103q-106 0 -186 45t-113 102q-42 -68 -118.5 -107.5t-178.5 -39.5h-168v360h123q89 0 146 61.5t57 176.5v956h279v-956q0 -107 54 -172.5t150 -65.5h58v-360zM698 0zM337 -214h-148v148h148v-148zM633 -214h-148v148h148v-148zM485 -423h-148v148h148v-148z" />
    <glyph glyph-name="uni06B8.fina" unicode="&#x6b8;" horiz-adv-x="1675" 
d="M1675 0h-98q-206 0 -270 152q-167 -206 -582 -206q-311 0 -447 105q-155 120 -155 419q0 106 31 338h272v-8q-27 -189 -27 -328q0 -107 120 -144q69 -21 208 -21q412 0 412 186v1061h278v-956q0 -103 50 -167q55 -71 155 -71h53v-360zM945 -234h-148v148h148v-148z
M649 -234h-148v148h148v-148zM797 -423h-148v148h148v-148z" />
    <glyph glyph-name="uni06B9.init" unicode="&#x6b9;" horiz-adv-x="698" 
d="M537 598q0 -275 -120.5 -436.5t-318.5 -161.5h-168v360h123q93 0 149 63t56 175v293h279v-293zM474 1135h-148v148h148v-148zM474 -295h-148v148h148v-148z" />
    <glyph glyph-name="uni06B9.medi" unicode="&#x6b9;" horiz-adv-x="793" 
d="M793 0h-99q-106 0 -186 45t-113 102q-42 -68 -118.5 -107.5t-178.5 -39.5h-168v360h123q89 0 146 61.5t57 176.5v123h279v-123q0 -107 54 -172.5t150 -65.5h54v-360zM698 0zM465 963h-148v148h148v-148zM465 -295h-148v148h148v-148z" />
    <glyph glyph-name="uni06B9.fina" unicode="&#x6b9;" horiz-adv-x="1729" 
d="M870 1017h-147v148h147v-148zM1728 0q-171 0 -226 15q-63 17 -108 93q-59 -156 -218 -244t-379 -88q-674 0 -674 629q0 222 37 370h282v-8q-43 -165 -43 -364q0 -264 394 -264q399 0 399 264q0 257 -31 364v8h309q0 -415 147 -415h111v-360zM870 -423h-147v148h147v-148z
" />
    <glyph glyph-name="uni06BB" unicode="&#x6bb;" horiz-adv-x="1591" arabic-form="isolated" 
d="M1468 633q0 -165 -53.5 -286t-144.5 -197q-93 -77 -213 -113.5t-260 -36.5q-136 0 -260.5 37t-214.5 113q-93 78 -146 198t-53 285q0 104 17.5 242t19.5 153h282v-8q-5 -18 -24 -143t-19 -246q0 -125 123.5 -198t270.5 -73q149 0 274 72t125 199q0 122 -17 238.5
t-26 150.5v8h278q7 -36 24 -175t17 -220zM1067 1368q0 -89 -88 -133q-67 -33 -160 -33h-289v92h82q21 16 21 24v500h83v-397q104 113 190 113q71 0 116 -47t45 -119zM983 1366q0 32 -22.5 54.5t-55.5 22.5q-72 0 -179 -149h48q209 0 209 72z" />
    <glyph glyph-name="uniFBA1" unicode="&#x6bb;" horiz-adv-x="1729" arabic-form="final" 
d="M1728 0h-186q-20 0 -41 2.5t-47 9.5q-44 -204 -220 -320t-437 -116q-145 0 -269 33.5t-214 108.5q-91 76 -141 196t-50 291q0 136 17 247t20 123h282v-8q-13 -50 -28 -163t-15 -201q0 -129 103 -196.5t291 -67.5q186 0 292.5 64.5t106.5 199.5q0 126 -10 226t-21 138v8
h309q0 -114 33 -164.5t84 -50.5h141v-360zM1591 0zM1468 253zM1067 983q0 -89 -88 -133q-67 -33 -160 -33h-289v92h82q21 16 21 24v500h83v-397q104 113 190 113q71 0 116 -47t45 -119zM983 981q0 32 -22.5 54.5t-55.5 22.5q-72 0 -179 -149h48q209 0 209 72z" />
    <glyph glyph-name="uni06BC.init" unicode="&#x6bc;" horiz-adv-x="698" 
d="M537 598q0 -275 -120.5 -436.5t-318.5 -161.5h-168v360h123q93 0 149 63t56 175v293h279v-293zM474 1135h-148v148h148v-148zM406 -82q0 -79 -56 -134t-133 -55q-78 0 -133 55.5t-55 133.5q0 77 55.5 132.5t132.5 55.5q78 0 133.5 -55t55.5 -133zM310 -84q0 40 -28 68
t-69 28q-40 0 -68 -28t-28 -68q0 -38 29 -66t67 -28q39 0 68 28t29 66z" />
    <glyph glyph-name="uni06BC.medi" unicode="&#x6bc;" horiz-adv-x="793" 
d="M793 0h-99q-106 0 -186 45t-113 102q-42 -68 -118.5 -107.5t-178.5 -39.5h-168v360h123q89 0 146 61.5t57 176.5v123h279v-123q0 -107 54 -172.5t150 -65.5h54v-360zM698 0zM474 963h-148v148h148v-148zM406 -82q0 -79 -56 -134t-133 -55q-78 0 -133 55.5t-55 133.5
q0 77 55.5 132.5t132.5 55.5q78 0 133.5 -55t55.5 -133zM310 -84q0 40 -28 68t-69 28q-40 0 -68 -28t-28 -68q0 -38 29 -66t67 -28q39 0 68 28t29 66z" />
    <glyph glyph-name="uni06BC.fina" unicode="&#x6bc;" horiz-adv-x="1729" 
d="M870 1196h-147v148h147v-148zM1728 0q-161 0 -252 32q-87 31 -149 120q-121 -197 -530 -197q-674 0 -674 629q0 222 37 370h282v-8q-43 -165 -43 -364q0 -264 394 -264q399 0 399 264q0 257 -31 364v8h309q0 -327 41 -468q37 -126 116 -126h101v-360zM985 -139
q0 -79 -55 -134t-134 -55t-133.5 55t-54.5 134q0 78 55 133t133 55q79 0 134 -55t55 -133zM889 -141q0 41 -28 68.5t-69 27.5q-40 0 -68 -28t-28 -68q0 -38 29 -66t67 -28q39 0 68 27.5t29 66.5z" />
    <glyph glyph-name="uni06BD.fina" unicode="&#x6bd;" horiz-adv-x="1729" 
d="M1728 0h-186q-20 0 -41 2.5t-47 9.5q-44 -204 -220 -320t-437 -116q-145 0 -269 33.5t-214 108.5q-91 76 -141 196t-50 291q0 136 17 247t20 123h282v-8q-13 -50 -28 -163t-15 -201q0 -129 103 -196.5t291 -67.5q186 0 292.5 64.5t106.5 199.5q0 126 -10 226t-21 138v8
h309q0 -114 33 -164.5t84 -50.5h141v-360zM1591 0zM1468 253zM723 817h-148v148h148v-148zM1019 817h-148v148h148v-148zM871 1026h-148v148h148v-148z" />
    <glyph glyph-name="uni06BF.init" unicode="&#x6bf;" horiz-adv-x="1538" 
d="M1436 584l-455 -258q-69 -38 -148.5 -87t-202.5 -109q-114 -56 -213.5 -93t-193.5 -37h-293v360h301q174 0 313 44t353 159q-112 51 -270.5 84t-317.5 33h-203v309h213q174 0 366 -62t464 -222l287 151v-272zM947 1133h-148v148h148v-148zM963 -90h-148v148h148v-148z
M1259 -90h-148v148h148v-148zM1111 -299h-148v148h148v-148z" />
    <glyph glyph-name="uni06BF.medi" unicode="&#x6bf;" horiz-adv-x="1538" 
d="M887 270q-171 -102 -352.5 -186t-311.5 -84h-293v360h301q197 0 343 53t323 150q-112 51 -270.5 84t-317.5 33h-203v309h213q181 0 372.5 -64t457.5 -220l287 151v-272l-351 -199q22 -13 45 -19t60 -6h348v-360h-305q-165 0 -251 63t-95 207zM926 1231h-148v148h148v-148
zM633 -214h-148v148h148v-148zM929 -214h-148v148h148v-148zM781 -423h-148v148h148v-148z" />
    <glyph glyph-name="uni06BF.fina" unicode="&#x6bf;" horiz-adv-x="1618" 
d="M1458 575v-120q0 -47 25 -71t73 -24h62v-360h-74q-153 0 -233 77.5t-80 237.5v260h-60q-193 0 -339 -27t-243 -77q-90 -46 -139 -115t-49 -157q0 -117 97.5 -191t277.5 -74q105 0 219.5 16t212.5 52h9v-346q-108 -43 -212 -61.5t-227 -18.5q-137 0 -255.5 43t-208.5 125
q-89 81 -140 195.5t-51 257.5q0 113 52.5 212.5t148.5 178.5q95 78 231.5 128t309.5 64q-16 6 -53 14t-115 22q-72 13 -189 24.5t-238 11.5h-67v309h59q251 0 515.5 -81t467.5 -236h260v-269h-47zM1303 844zM1425 0zM1051 1305h-148v148h148v-148zM768 250h-148v148h148
v-148zM1064 250h-148v148h148v-148zM916 41h-148v148h148v-148z" />
    <glyph glyph-name="uni06C4.fina" unicode="&#x6c4;" horiz-adv-x="1157" 
d="M694 383q-13 136 -63 215.5t-103 79.5q-54 0 -91.5 -43t-37.5 -103t88 -101t207 -48zM1157 0h-4q-55 0 -127 7t-88 9q-63 -136 -183 -223.5t-262 -134.5t-285.5 -64.5t-270.5 -17.5v344q186 0 322 23.5t215 50.5q91 31 123.5 50.5t39.5 23.5q-250 28 -382 154.5
t-132 303.5q0 186 118.5 319.5t284.5 133.5q186 0 314 -171t147 -441q17 -2 76.5 -4.5t85.5 -2.5h8v-360zM961 274zM1083 0zM257 20q0 -79 -56 -134t-133 -55q-78 0 -133 55.5t-55 133.5q0 77 55.5 132.5t132.5 55.5q78 0 133.5 -55t55.5 -133zM161 18q0 40 -28 68t-69 28
q-40 0 -68 -28t-28 -68q0 -38 29 -66t67 -28q39 0 68 28t29 66z" />
    <glyph glyph-name="uni06C5" unicode="&#x6c5;" horiz-adv-x="1083" arabic-form="isolated" 
d="M961 274q0 -390 -348 -565q-265 -133 -705 -133v344q372 0 575 80h-433v110h605q41 44 60 97q-70 -14 -110 -14q-209 0 -349 78q-162 90 -162 255q0 177 112 311q118 142 292 142q234 0 361 -249q102 -200 102 -456zM666 429q-45 228 -156 228q-54 0 -95 -35
q-44 -37 -44 -90t59 -88q50 -30 102 -30q97 0 134 15z" />
    <glyph glyph-name="uniFBE1" unicode="&#x6c5;" horiz-adv-x="1157" arabic-form="final" 
d="M1157 0h-4q-107 0 -212 26q-159 -450 -1004 -450v344q435 0 598 80h-485v110h562q-190 29 -324 124q-165 117 -165 292q0 178 111 312q117 141 292 141q212 0 340 -209q105 -170 121 -403q59 -7 162 -7h8v-360zM694 383q-9 93 -44 178q-49 117 -122 117q-57 0 -93 -44
t-36 -102q0 -71 118 -114q83 -29 177 -35z" />
    <glyph glyph-name="uni06C6" unicode="&#x6c6;" horiz-adv-x="1083" arabic-form="isolated" 
d="M961 274q0 -204 -97.5 -351.5t-284.5 -228.5q-146 -65 -311.5 -91.5t-359.5 -26.5v344q85 0 218 10t221 30q104 23 188 63t120 104q-10 -2 -55.5 -8t-54.5 -6q-205 0 -328 117.5t-123 295.5q0 190 121.5 321.5t282.5 131.5q193 0 328 -194t135 -511zM666 449
q-19 97 -60.5 152.5t-95.5 55.5t-96.5 -36.5t-42.5 -88.5q0 -37 40 -67.5t121 -30.5q42 0 83 5.5t51 9.5zM691 1474l-127 -286h-98l-127 286h107l69 -189l69 189h107z" />
    <glyph glyph-name="uniFBDA" unicode="&#x6c6;" horiz-adv-x="1157" arabic-form="final" 
d="M694 383q-13 136 -63 215.5t-103 79.5q-54 0 -91.5 -43t-37.5 -103t88 -101t207 -48zM1157 0h-4q-55 0 -127 7t-88 9q-63 -136 -183 -223.5t-262 -134.5t-285.5 -64.5t-270.5 -17.5v344q186 0 322 23.5t215 50.5q91 31 123.5 50.5t39.5 23.5q-250 28 -382 154.5
t-132 303.5q0 186 118.5 319.5t284.5 133.5q186 0 314 -171t147 -441q17 -2 76.5 -4.5t85.5 -2.5h8v-360zM961 274zM1083 0zM691 1474l-127 -286h-98l-127 286h107l69 -189l69 189h107z" />
    <glyph glyph-name="uni06C7" unicode="&#x6c7;" horiz-adv-x="1083" arabic-form="isolated" 
d="M961 274q0 -204 -97.5 -351.5t-284.5 -228.5q-146 -65 -311.5 -91.5t-359.5 -26.5v344q85 0 218 10t221 30q104 23 188 63t120 104q-10 -2 -55.5 -8t-54.5 -6q-205 0 -328 117.5t-123 295.5q0 190 121.5 321.5t282.5 131.5q193 0 328 -194t135 -511zM666 449
q-19 97 -60.5 152.5t-95.5 55.5t-96.5 -36.5t-42.5 -88.5q0 -37 40 -67.5t121 -30.5q42 0 83 5.5t51 9.5zM696 1188l-127 28q-91 -52 -180.5 -79t-188.5 -33v88q75 5 141 19t131 44q-51 16 -90 57.5t-39 98.5q0 69 46.5 113.5t125.5 44.5q69 0 119.5 -45t50.5 -117
q0 -34 -18 -70.5t-35 -50.5l64 -12v-86zM548 1311q21 18 34 40.5t13 57.5q0 29 -23.5 47t-52.5 18q-35 0 -58 -16.5t-23 -48.5q0 -34 28.5 -59.5t81.5 -38.5z" />
    <glyph glyph-name="uniFBD8" unicode="&#x6c7;" horiz-adv-x="1157" arabic-form="final" 
d="M694 383q-13 136 -63 215.5t-103 79.5q-54 0 -91.5 -43t-37.5 -103t88 -101t207 -48zM1157 0h-4q-55 0 -127 7t-88 9q-63 -136 -183 -223.5t-262 -134.5t-285.5 -64.5t-270.5 -17.5v344q186 0 322 23.5t215 50.5q91 31 123.5 50.5t39.5 23.5q-250 28 -382 154.5
t-132 303.5q0 186 118.5 319.5t284.5 133.5q186 0 314 -171t147 -441q17 -2 76.5 -4.5t85.5 -2.5h8v-360zM961 274zM1083 0zM696 1188l-127 28q-91 -52 -180.5 -79t-188.5 -33v88q75 5 141 19t131 44q-51 16 -90 57.5t-39 98.5q0 69 46.5 113.5t125.5 44.5q69 0 119.5 -45
t50.5 -117q0 -34 -18 -70.5t-35 -50.5l64 -12v-86zM548 1311q21 18 34 40.5t13 57.5q0 29 -23.5 47t-52.5 18q-35 0 -58 -16.5t-23 -48.5q0 -34 28.5 -59.5t81.5 -38.5z" />
    <glyph glyph-name="uni06C8" unicode="&#x6c8;" horiz-adv-x="1083" arabic-form="isolated" 
d="M961 274q0 -204 -97.5 -351.5t-284.5 -228.5q-146 -65 -311.5 -91.5t-359.5 -26.5v344q85 0 218 10t221 30q104 23 188 63t120 104q-10 -2 -55.5 -8t-54.5 -6q-205 0 -328 117.5t-123 295.5q0 190 121.5 321.5t282.5 131.5q193 0 328 -194t135 -511zM666 449
q-19 97 -60.5 152.5t-95.5 55.5t-96.5 -36.5t-42.5 -88.5q0 -37 40 -67.5t121 -30.5q42 0 83 5.5t51 9.5zM405 1188h-169v616h169v-616z" />
    <glyph glyph-name="uniFBDC" unicode="&#x6c8;" horiz-adv-x="1157" arabic-form="final" 
d="M694 383q-13 136 -63 215.5t-103 79.5q-54 0 -91.5 -43t-37.5 -103t88 -101t207 -48zM1157 0h-4q-55 0 -127 7t-88 9q-63 -136 -183 -223.5t-262 -134.5t-285.5 -64.5t-270.5 -17.5v344q186 0 322 23.5t215 50.5q91 31 123.5 50.5t39.5 23.5q-250 28 -382 154.5
t-132 303.5q0 186 118.5 319.5t284.5 133.5q186 0 314 -171t147 -441q17 -2 76.5 -4.5t85.5 -2.5h8v-360zM961 274zM1083 0zM405 1188h-169v616h169v-616z" />
    <glyph glyph-name="uni06C9" unicode="&#x6c9;" horiz-adv-x="1083" arabic-form="isolated" 
d="M961 274q0 -204 -97.5 -351.5t-284.5 -228.5q-146 -65 -311.5 -91.5t-359.5 -26.5v344q85 0 218 10t221 30q104 23 188 63t120 104q-10 -2 -55.5 -8t-54.5 -6q-205 0 -328 117.5t-123 295.5q0 190 121.5 321.5t282.5 131.5q193 0 328 -194t135 -511zM666 449
q-19 97 -60.5 152.5t-95.5 55.5t-96.5 -36.5t-42.5 -88.5q0 -37 40 -67.5t121 -30.5q42 0 83 5.5t51 9.5zM655 1188l-149 219l-149 -219h-107l207 316h98l207 -316h-107z" />
    <glyph glyph-name="uniFBE3" unicode="&#x6c9;" horiz-adv-x="1157" arabic-form="final" 
d="M694 383q-13 136 -63 215.5t-103 79.5q-54 0 -91.5 -43t-37.5 -103t88 -101t207 -48zM1157 0h-4q-55 0 -127 7t-88 9q-63 -136 -183 -223.5t-262 -134.5t-285.5 -64.5t-270.5 -17.5v344q186 0 322 23.5t215 50.5q91 31 123.5 50.5t39.5 23.5q-250 28 -382 154.5
t-132 303.5q0 186 118.5 319.5t284.5 133.5q186 0 314 -171t147 -441q17 -2 76.5 -4.5t85.5 -2.5h8v-360zM961 274zM1083 0zM655 1188l-149 219l-149 -219h-107l207 316h98l207 -316h-107z" />
    <glyph glyph-name="uni06CA.fina" unicode="&#x6ca;" horiz-adv-x="1157" 
d="M694 383q-13 136 -63 215.5t-103 79.5q-54 0 -91.5 -43t-37.5 -103t88 -101t207 -48zM1157 0h-4q-55 0 -127 7t-88 9q-63 -136 -183 -223.5t-262 -134.5t-285.5 -64.5t-270.5 -17.5v344q186 0 322 23.5t215 50.5q91 31 123.5 50.5t39.5 23.5q-250 28 -382 154.5
t-132 303.5q0 186 118.5 319.5t284.5 133.5q186 0 314 -171t147 -441q17 -2 76.5 -4.5t85.5 -2.5h8v-360zM961 274zM1083 0zM451 1188h-148v148h148v-148zM719 1188h-148v148h148v-148z" />
    <glyph glyph-name="uni06CB" unicode="&#x6cb;" horiz-adv-x="1083" arabic-form="isolated" 
d="M961 274q0 -204 -97.5 -351.5t-284.5 -228.5q-146 -65 -311.5 -91.5t-359.5 -26.5v344q85 0 218 10t221 30q104 23 188 63t120 104q-10 -2 -55.5 -8t-54.5 -6q-205 0 -328 117.5t-123 295.5q0 190 121.5 321.5t282.5 131.5q193 0 328 -194t135 -511zM666 449
q-19 97 -60.5 152.5t-95.5 55.5t-96.5 -36.5t-42.5 -88.5q0 -37 40 -67.5t121 -30.5q42 0 83 5.5t51 9.5zM437 1188h-148v148h148v-148zM733 1188h-148v148h148v-148zM585 1397h-148v148h148v-148z" />
    <glyph glyph-name="uniFBDF" unicode="&#x6cb;" horiz-adv-x="1157" arabic-form="final" 
d="M694 383q-13 136 -63 215.5t-103 79.5q-54 0 -91.5 -43t-37.5 -103t88 -101t207 -48zM1157 0h-4q-55 0 -127 7t-88 9q-63 -136 -183 -223.5t-262 -134.5t-285.5 -64.5t-270.5 -17.5v344q186 0 322 23.5t215 50.5q91 31 123.5 50.5t39.5 23.5q-250 28 -382 154.5
t-132 303.5q0 186 118.5 319.5t284.5 133.5q186 0 314 -171t147 -441q17 -2 76.5 -4.5t85.5 -2.5h8v-360zM961 274zM1083 0zM437 1188h-148v148h148v-148zM733 1188h-148v148h148v-148zM585 1397h-148v148h148v-148z" />
    <glyph glyph-name="uni06CD.fina" unicode="&#x6cd;" horiz-adv-x="2247" 
d="M2247 0h-58q-54 0 -111 34q-85 51 -177 172q-56 74 -85 115l-83 118q-37 52 -81 100l-3 3q-93 101 -172 101q-41 0 -82 -27q-47 -30 -47 -69q0 -32 59 -75l111 -82q170 -124 170 -234q0 -223 -227.5 -353.5t-597.5 -130.5q-313 0 -480.5 132t-167.5 399q0 77 10 131
l-225 -51v116l518 142v-11q-27 -149 -27 -321q0 -119 142 -157q70 -19 232 -19q250 0 397 31.5t147 93.5q0 43 -66 97q-12 10 -104 72q-170 115 -170 222q0 155 128 263q122 103 280 103q117 0 228 -87q70 -55 177 -191q48 -66 152 -190q83 -87 151 -87h62v-360z" />
    <glyph glyph-name="uni06CE.init" unicode="&#x6ce;" horiz-adv-x="698" 
d="M537 598q0 -275 -120.5 -436.5t-318.5 -161.5h-168v360h123q93 0 149 63t56 175v293h279v-293zM591 1301l-127 -286h-98l-127 286h107l69 -189l69 189h107zM130 -295h-148v148h148v-148zM398 -295h-148v148h148v-148z" />
    <glyph glyph-name="uni06CE.medi" unicode="&#x6ce;" horiz-adv-x="793" 
d="M793 0h-99q-106 0 -186 45t-113 102q-42 -68 -118.5 -107.5t-178.5 -39.5h-168v360h123q89 0 146 61.5t57 176.5v123h279v-123q0 -107 54 -172.5t150 -65.5h54v-360zM698 0zM591 1301l-127 -286h-98l-127 286h107l69 -189l69 189h107zM331 -295h-148v148h148v-148z
M599 -295h-148v148h148v-148z" />
    <glyph glyph-name="uni06CE.fina" unicode="&#x6ce;" horiz-adv-x="2247" 
d="M2247 0h-58q-53 0 -102 28t-95 72q-46 46 -91.5 106t-84.5 115q-42 60 -83.5 118t-83.5 103q-43 47 -85.5 74t-86.5 27q-52 0 -90.5 -33t-38.5 -63q0 -32 58.5 -75t111.5 -82q84 -61 127 -119t43 -115q0 -223 -227 -353.5t-638 -130.5q-364 0 -532 132.5t-168 402.5
q0 110 11.5 207.5t19.5 126.5h274v-11q-4 -22 -15.5 -112.5t-11.5 -208.5q0 -89 91 -132.5t333 -43.5q292 0 438 31.5t146 93.5q0 45 -55.5 87t-114.5 82q-65 44 -117.5 97.5t-52.5 124.5q0 144 119.5 255t288.5 111q68 0 124.5 -25t103.5 -62q54 -42 97 -93t80 -98
q40 -51 78 -101.5t74 -88.5q39 -41 74 -64t77 -23h62v-360zM831 915l-127 -286h-98l-127 286h107l69 -189l69 189h107z" />
    <glyph glyph-name="uni06CF.fina" unicode="&#x6cf;" horiz-adv-x="1157" 
d="M694 383q-13 136 -63 215.5t-103 79.5q-54 0 -91.5 -43t-37.5 -103t88 -101t207 -48zM1157 0h-4q-55 0 -127 7t-88 9q-63 -136 -183 -223.5t-262 -134.5t-285.5 -64.5t-270.5 -17.5v344q186 0 322 23.5t215 50.5q91 31 123.5 50.5t39.5 23.5q-250 28 -382 154.5
t-132 303.5q0 186 118.5 319.5t284.5 133.5q186 0 314 -171t147 -441q17 -2 76.5 -4.5t85.5 -2.5h8v-360zM961 274zM1083 0zM585 1188h-148v148h148v-148z" />
    <glyph glyph-name="uni06D0" unicode="&#x6d0;" horiz-adv-x="1991" arabic-form="isolated" 
d="M1860 932h-9q-54 29 -176 53.5t-243 24.5q-102 0 -158.5 -24.5t-56.5 -65.5q0 -36 106 -68.5t222 -70.5q55 -19 116 -47t109 -63q45 -34 73.5 -79t28.5 -100q0 -234 -269 -366t-782 -132q-354 0 -527 127t-173 403q0 125 14.5 225.5t16.5 112.5h272v-18
q-4 -16 -15.5 -122t-11.5 -196q0 -82 85.5 -126t340.5 -44q381 0 575.5 30.5t194.5 102.5q0 35 -75.5 64.5t-223.5 69.5q-65 18 -136.5 49t-116.5 65q-45 33 -74 80t-29 105q0 171 138 288t358 117q128 0 241.5 -22t184.5 -50v-323zM985 -211h-148v148h148v-148zM985 -420
h-148v148h148v-148z" />
    <glyph glyph-name="uniFBE5" unicode="&#x6d0;" horiz-adv-x="2345" arabic-form="final" 
d="M2345 0h-57q-119 0 -229 127q-81 94 -167 272q-59 126 -117 252q-148 292 -298 292q-41 0 -83 -27q-46 -30 -46 -69q0 -29 67 -85q48 -36 95 -72q161 -127 161 -234q0 -274 -308 -397q-217 -86 -540 -86q-325 0 -492 103q-208 129 -208 431q0 235 31 334h274v-10
q-27 -135 -27 -322q0 -117 163 -156q85 -20 261 -20q568 0 568 125q0 58 -162 170t-162 221q0 156 128 264q122 103 280 103q254 0 467 -398q69 -141 138 -281q101 -177 202 -177h61v-360zM899 -214h-148v148h148v-148zM899 -423h-148v148h148v-148z" />
    <glyph glyph-name="uni06D1.fina" unicode="&#x6d1;" horiz-adv-x="2345" 
d="M2345 0h-57q-119 0 -229 127q-81 94 -167 272q-59 126 -117 252q-148 292 -298 292q-41 0 -83 -27q-46 -30 -46 -69q0 -29 67 -85q48 -36 95 -72q161 -127 161 -234q0 -274 -308 -397q-217 -86 -540 -86q-325 0 -492 103q-208 129 -208 431q0 235 31 334h274v-10
q-27 -135 -27 -322q0 -117 163 -156q85 -20 261 -20q568 0 568 125q0 58 -162 170t-162 221q0 156 128 264q122 103 280 103q254 0 467 -398q69 -141 138 -281q101 -177 202 -177h61v-360zM1047 -214h-148v148h148v-148zM751 -214h-148v148h148v-148zM899 -423h-148v148h148
v-148z" />
    <glyph glyph-name="uni06FA.init" unicode="&#x6fa;" horiz-adv-x="2247" 
d="M2083 592q0 -288 -130 -443t-356 -155q-99 0 -178.5 43.5t-118.5 103.5q-48 -65 -121.5 -106t-203.5 -41q-99 0 -179 43.5t-118 103.5q-49 -65 -129.5 -103t-194.5 -38h-424v360h424q82 0 133.5 58.5t51.5 152.5v148h278v-150q0 -86 42 -147.5t118 -61.5q86 0 135 58
t49 153v148h279v-150q0 -87 41.5 -148t117.5 -61q86 0 145.5 65t59.5 169v297h279v-299zM1379 -295h-148v148h148v-148zM1231 961h-148v148h148v-148zM1527 961h-148v148h148v-148zM1379 1170h-148v148h148v-148z" />
    <glyph glyph-name="uni06FA.medi" unicode="&#x6fa;" horiz-adv-x="2335" 
d="M2335 0h-99q-113 0 -191 42.5t-108 100.5q-34 -62 -129 -105.5t-211 -43.5q-99 0 -178.5 43.5t-118.5 103.5q-42 -62 -125 -104.5t-200 -42.5q-99 0 -179 43.5t-118 103.5q-54 -71 -136 -106t-188 -35h-424v360h424q82 0 133.5 58.5t51.5 152.5v148h278v-150
q0 -86 42 -147.5t118 -61.5q86 0 135 58t49 153v148h279v-150q0 -87 41.5 -148t117.5 -61q86 0 142.5 65t56.5 169v297h279v-299q0 -112 60 -172t142 -60h56v-360zM2247 0zM1379 -295h-148v148h148v-148zM1231 961h-148v148h148v-148zM1527 961h-148v148h148v-148z
M1379 1170h-148v148h148v-148z" />
    <glyph glyph-name="uni06FA.fina" unicode="&#x6fa;" horiz-adv-x="3004" 
d="M3004 0h-98q-113 0 -191 42.5t-108 100.5q-39 -66 -133 -107.5t-207 -41.5q-99 0 -179 43.5t-118 103.5q-55 -74 -139 -110.5t-184 -36.5q-60 0 -114.5 27t-86.5 71q-36 -242 -224.5 -379t-447.5 -137q-139 0 -258 42.5t-207 124.5q-86 82 -136 207t-50 283q0 145 17 257
t20 126h284v-12q-9 -32 -26 -149.5t-17 -216.5q0 -143 116 -221t257 -78q172 0 283.5 101t111.5 271q0 139 -7 260.5t-9 147.5h305q0 -174 52.5 -269.5t136.5 -95.5q81 0 132.5 61.5t51.5 155.5v148h278v-150q0 -87 42 -148t118 -61q86 0 142.5 65t56.5 169v297h278v-299
q0 -112 60.5 -172t142.5 -60h55v-360zM2871 0zM2045 -295h-148v148h148v-148zM1897 961h-148v148h148v-148zM2193 961h-148v148h148v-148zM2045 1170h-148v148h148v-148z" />
    <glyph glyph-name="uni06FB.init" unicode="&#x6fb;" horiz-adv-x="1905" 
d="M1782 539q0 -110 -54.5 -209.5t-150.5 -171.5q-99 -74 -230.5 -116t-293.5 -42h-541q-64 0 -114.5 21.5t-78.5 76.5q-32 -53 -79 -75.5t-136 -22.5h-174v360h164q40 0 63 22.5t23 66.5v112h279v-108q0 -33 5.5 -50t20.5 -24q84 120 184.5 245.5t191.5 206.5
q100 89 215.5 141t250.5 52q199 0 327 -137t128 -348zM1381 417q61 26 92.5 60.5t31.5 75.5q0 58 -46.5 106t-129.5 48q-95 0 -178 -35.5t-155 -87.5q-70 -52 -123.5 -110t-98.5 -114h195q142 0 246 15.5t166 41.5zM658 1165h-148v148h148v-148zM785 -295h-148v148h148v-148
z" />
    <glyph glyph-name="uni06FB.medi" unicode="&#x6fb;" horiz-adv-x="2023" 
d="M2023 0h-112q-140 0 -217 41.5t-107 120.5q-106 -79 -241 -120.5t-293 -41.5h-541q-64 0 -114.5 21.5t-78.5 76.5q-32 -53 -79 -75.5t-136 -22.5h-174v360h164q40 0 63 22.5t23 66.5v112h279v-108q0 -33 5.5 -50t20.5 -24q101 143 193 255.5t187 196.5q100 88 217 140.5
t253 52.5q189 0 322 -130t133 -355q0 -34 -8 -78.5t-21 -75.5q22 -13 45.5 -19t61.5 -6h155v-360zM1390 417q64 28 93.5 62t29.5 74q0 58 -46.5 106t-129.5 48q-96 0 -179 -35.5t-154 -87.5q-70 -52 -123.5 -110t-98.5 -114h197q142 0 245.5 15.5t165.5 41.5zM1905 0z
M781 1165h-148v148h148v-148zM785 -295h-148v148h148v-148z" />
    <glyph glyph-name="uni06FB.fina" unicode="&#x6fb;" horiz-adv-x="3043" 
d="M3043 0h-98q-116 0 -199 45.5t-131 142.5q-104 -88 -243.5 -138t-321.5 -50h-625q-70 -201 -240 -312.5t-411 -111.5q-139 0 -258 42.5t-207 124.5q-86 82 -136 207t-50 283q0 143 17 256t20 127h284v-12q-9 -32 -26 -149.5t-17 -216.5q0 -132 105.5 -215.5t267.5 -83.5
q80 0 152 24.5t123 68.5q59 51 89.5 121t30.5 158q0 141 -7 215.5t-9 89.5h285q2 -13 9 -67t9 -96q1 -21 6.5 -44t20.5 -30q101 143 193 255.5t187 196.5q100 88 217 140.5t253 52.5q180 0 308 -118.5t144 -313.5l2 -35q9 -94 67 -145.5t134 -51.5h55v-360zM2387 418
q61 26 92.5 59.5t31.5 71.5q0 65 -49.5 111.5t-126.5 46.5q-96 0 -180.5 -35.5t-154.5 -87.5q-71 -52 -127 -113t-95 -111h198q141 0 246 16.5t165 41.5zM2910 0zM1778 1167h-148v148h148v-148zM1885 -295h-148v148h148v-148z" />
    <glyph glyph-name="uni06FC.init" unicode="&#x6fc;" horiz-adv-x="1391" 
d="M1290 184q-337 -95 -561.5 -139.5t-337.5 -44.5h-461v360h330q-32 30 -61 104.5t-29 137.5q0 223 148.5 366.5t383.5 143.5q115 0 242 -28.5t184 -55.5v-309h-12q-73 27 -198.5 52.5t-206.5 25.5q-118 0 -191.5 -61.5t-73.5 -143.5q0 -72 45.5 -128.5t104.5 -82.5
q169 20 366.5 65.5t327.5 75.5v-338zM758 1354h-148v148h148v-148zM758 -295h-148v148h148v-148z" />
    <glyph glyph-name="uni06FC.medi" unicode="&#x6fc;" horiz-adv-x="1208" 
d="M1208 0h-276q-92 0 -180 41.5t-150 99.5q-66 -65 -152 -103t-178 -38h-342v360h346q19 0 38 5.5t26 11.5q-38 26 -83.5 65t-81.5 78q-40 43 -67.5 87t-27.5 79q0 77 48 137t126 102q69 38 162 60.5t186 22.5q90 0 181 -20.5t169 -60.5q77 -40 126.5 -100t49.5 -137
q0 -36 -29 -81t-68 -85q-35 -36 -86 -81.5t-81 -69.5q4 -6 22 -9.5t42 -3.5h280v-360zM750 552q44 32 70 54.5t26 36.5q0 23 -24 41t-61 31q-38 13 -80 19.5t-79 6.5q-86 0 -163 -29.5t-77 -66.5q0 -12 28 -37.5t68 -54.5q36 -26 80 -54t64 -38q26 13 69 39t79 52zM666 1249
h-148v148h148v-148zM666 -295h-148v148h148v-148z" />
    <glyph glyph-name="uni06FC.fina" unicode="&#x6fc;" horiz-adv-x="1384" 
d="M985 -424h-207q-139 0 -260 34.5t-208 100.5q-88 67 -137.5 165.5t-49.5 227.5q0 63 23.5 114t61.5 94q34 38 77.5 68t85.5 52l8 4q-28 22 -59.5 52t-70.5 82q-34 44 -58.5 95t-24.5 97q0 56 32 108.5t100 101.5q64 46 161.5 75.5t218.5 29.5t217 -30t161 -76
q67 -46 102.5 -102t35.5 -109q0 -92 -83.5 -176.5t-213.5 -139.5l-84 -34q31 -18 85 -34t126 -16h360v-360h-288q-71 0 -133.5 18t-111.5 44q-51 27 -98 63.5t-75 60.5l-100 84q-24 -13 -69.5 -64.5t-45.5 -96.5q0 -50 26 -84.5t70 -53.5q46 -20 99 -27t118 -7h209v-361z
M913 727q0 28 -72.5 60t-162.5 32q-95 0 -162 -34t-67 -58q0 -44 58.5 -102t94.5 -80l37 -23l53 19q91 32 156 88t65 98zM744 1317h-148v148h148v-148zM685 0h-148v148h148v-148z" />
    <glyph glyph-name="uni068A.fina" unicode="&#x68a;" horiz-adv-x="1178" 
d="M1178 0h-191q-96 0 -160 34.5t-100 104.5q-45 -77 -116.5 -108t-164.5 -31h-344v360h355q75 0 123.5 26.5t48.5 59.5q0 9 -4.5 27.5t-10.5 36.5l-188 637h311l156 -539q14 -48 33.5 -101.5t35.5 -79.5q19 -32 44.5 -49.5t62.5 -17.5h109v-360zM1114 0zM465 -295h-148v148
h148v-148z" />
    <glyph glyph-name=".notdef" horiz-adv-x="2048" 
d="M256 0v1536h1536v-1536h-1536zM384 128h1280v1280h-1280v-1280z" />
    <glyph glyph-name=".null" 
 />
    <glyph glyph-name="nonmarkingreturn" horiz-adv-x="600" 
 />
    <glyph glyph-name="space" unicode=" " horiz-adv-x="600" 
 />
    <glyph glyph-name="space" unicode="&#xa0;" horiz-adv-x="600" 
 />
    <glyph glyph-name="exclam" unicode="!" horiz-adv-x="702" 
d="M550 1489l-41 -1060h-316l-41 1060h398zM548 0h-394v264h394v-264z" />
    <glyph glyph-name="quotedbl" unicode="&#x22;" horiz-adv-x="1002" 
d="M874 1556l-60 -589h-206l-60 589h326zM453 1556l-60 -589h-206l-60 589h326z" />
    <glyph glyph-name="numbersign" unicode="#" horiz-adv-x="1676" 
d="M1551 913h-304l-83 -328h271v-230h-329l-90 -355h-232l89 355h-254l-89 -355h-235l89 355h-259v230h317l82 328h-282v230h339l87 346h236l-87 -346h253l87 346h236l-88 -346h246v-230zM1016 915h-258l-84 -332h258z" />
    <glyph glyph-name="dollar" unicode="$" horiz-adv-x="1304" 
d="M1226 429q0 -84 -35 -159t-97 -131q-63 -57 -154 -94.5t-205 -43.5v-362h-164v357q-108 1 -240 27t-209 65v290h32q48 -31 173 -71.5t249 -45.5v277l-89 22q-77 19 -147 46t-126 74q-55 46 -86.5 111.5t-31.5 168.5q0 150 125.5 255.5t349.5 127.5v233h164v-231
q90 -3 206.5 -26.5t178.5 -50.5v-288h-32q-73 45 -159 71t-199 32v-254l88 -19q208 -45 308 -131.5t100 -249.5zM583 848v234q-56 -5 -97 -33t-41 -81q0 -43 24 -71t114 -49zM872 390q0 50 -35.5 82t-113.5 47v-256q63 6 106 35.5t43 91.5z" />
    <glyph glyph-name="percent" unicode="%" horiz-adv-x="2455" 
d="M974 1036q0 -248 -110.5 -368.5t-320.5 -120.5q-216 0 -326 120t-110 365t112 365.5t324 120.5q216 0 323.5 -120.5t107.5 -361.5zM1748 1489l-780 -1489h-264l780 1489h264zM2346 458q0 -248 -110.5 -368.5t-320.5 -120.5q-216 0 -326 120t-110 365t112 365.5t324 120.5
q216 0 323.5 -120.5t107.5 -361.5zM689 1033q0 63 -5.5 115t-21.5 87t-45 52.5t-74 17.5q-48 0 -75 -17.5t-44 -53.5q-15 -32 -21 -87t-6 -115q0 -74 4 -117.5t22 -83.5q15 -35 44.5 -53.5t75.5 -18.5q45 0 74 18t45 54q14 32 20.5 82t6.5 120zM2061 455q0 63 -5.5 115
t-21.5 87t-45 52.5t-74 17.5q-48 0 -75 -17.5t-44 -53.5q-15 -32 -21 -87t-6 -115q0 -74 4 -117.5t22 -83.5q15 -35 44.5 -53.5t75.5 -18.5q45 0 74 18t45 54q14 32 20.5 82t6.5 120z" />
    <glyph glyph-name="ampersand" unicode="&#x26;" horiz-adv-x="1600" 
d="M1658 0h-445l-130 126q-105 -85 -215 -121t-230 -36q-258 0 -405.5 127.5t-147.5 332.5q0 87 23.5 149t61.5 112q35 47 82.5 82.5t92.5 61.5q-43 34 -76.5 66.5t-59.5 72.5q-26 39 -40 84.5t-14 106.5q0 65 26 127t86 115q56 49 156 81.5t233 32.5q119 0 206 -25t146 -67
q57 -42 87.5 -101.5t30.5 -128.5q0 -44 -13.5 -100t-45.5 -101q-39 -55 -101.5 -98.5t-158.5 -75.5l286 -276v322h349v-111q0 -41 -8.5 -101.5t-22.5 -103.5q-15 -49 -41.5 -101t-67.5 -99l356 -333v-20zM766 1154q0 50 -13.5 81t-34.5 48q-19 16 -42 20t-36 4q-15 0 -33 -4
t-41 -21q-18 -13 -32 -43t-14 -71q0 -59 39.5 -110.5t109.5 -109.5q48 44 72.5 94t24.5 112zM918 295l-400 379q-16 -23 -35.5 -75.5t-19.5 -110.5q0 -66 22.5 -114.5t58.5 -80.5t80.5 -48t89.5 -16q62 0 109.5 14.5t94.5 51.5z" />
    <glyph glyph-name="quotesingle" unicode="'" horiz-adv-x="564" 
d="M445 1556l-60 -589h-206l-60 589h326z" />
    <glyph glyph-name="parenleft" unicode="(" horiz-adv-x="930" 
d="M850 -412h-367q-85 101 -154 208t-119 230q-47 115 -73.5 255t-26.5 291q0 165 27.5 299t71.5 245q48 121 117.5 228.5t156.5 211.5h367v-29q-81 -73 -154.5 -165.5t-136.5 -216.5q-60 -119 -97.5 -264t-37.5 -309q0 -171 36.5 -310t98.5 -263q60 -118 135.5 -214.5
t155.5 -167.5v-29z" />
    <glyph glyph-name="parenright" unicode=")" horiz-adv-x="930" 
d="M819 572q0 -151 -26.5 -290.5t-73.5 -255.5q-50 -123 -119 -230t-154 -208h-367v29q80 71 156 167t135 215q62 124 98.5 263t36.5 310q0 164 -37.5 309t-97.5 264q-63 124 -136.5 216.5t-154.5 165.5v29h367q87 -104 156.5 -211.5t117.5 -228.5q44 -111 71.5 -245
t27.5 -299z" />
    <glyph glyph-name="asterisk" unicode="*" horiz-adv-x="1304" 
d="M1133 861l-103 -152l-312 213l11 -348h-200l6 338l-305 -204l-102 154l344 203l-342 205l100 154l305 -207l-6 339h199l-6 -339l308 206l103 -154l-346 -203z" />
    <glyph glyph-name="plus" unicode="+" horiz-adv-x="1676" 
d="M1482 528h-512v-508h-264v508h-512v258h512v508h264v-508h512v-258z" />
    <glyph glyph-name="comma" unicode="," horiz-adv-x="640" 
d="M558 393l-350 -763h-213l197 763h366z" />
    <glyph glyph-name="hyphen" unicode="-" horiz-adv-x="883" 
d="M773 518h-663v278h663v-278z" />
    <glyph glyph-name="hyphen" unicode="&#xad;" horiz-adv-x="883" 
d="M773 518h-663v278h663v-278z" />
    <glyph glyph-name="period" unicode="." horiz-adv-x="640" 
d="M497 0h-354v393h354v-393z" />
    <glyph glyph-name="slash" unicode="/" horiz-adv-x="1182" 
d="M998 1556l-593 -1880h-287l590 1880h290z" />
    <glyph glyph-name="zero" unicode="0" horiz-adv-x="1304" 
d="M1226 745q0 -193 -31 -338t-99 -242t-177 -146.5t-267 -49.5q-157 0 -266 49.5t-178 148.5q-68 98 -99 241.5t-31 335.5q0 198 30.5 338t101.5 241q70 99 180 147.5t262 48.5q161 0 268.5 -50.5t176.5 -150.5q68 -98 98.5 -242t30.5 -331zM851 745q0 276 -45.5 387.5
t-153.5 111.5q-107 0 -153 -111.5t-46 -389.5q0 -272 46 -385.5t153 -113.5t153 113.5t46 387.5z" />
    <glyph glyph-name="one" unicode="1" horiz-adv-x="1304" 
d="M1179 0h-984v260h314v787h-314v243q69 0 137 9t109 29q48 24 74.5 64.5t30.5 100.5h326v-1233h307v-260z" />
    <glyph glyph-name="two" unicode="2" horiz-adv-x="1304" 
d="M1245 0h-1094v243q139 110 249.5 208t194.5 186q109 115 158 202t49 179q0 104 -62 159.5t-173 55.5q-57 0 -107.5 -14t-102.5 -36q-51 -23 -87 -47l-54 -36h-29v325q63 30 197 61.5t258 31.5q265 0 401.5 -118t136.5 -332q0 -132 -62 -258.5t-206 -271.5
q-90 -89 -175 -158.5t-123 -98.5h631v-281z" />
    <glyph glyph-name="three" unicode="3" horiz-adv-x="1304" 
d="M1208 451q0 -109 -40.5 -199t-118.5 -153q-79 -63 -185.5 -96.5t-259.5 -33.5q-174 0 -298.5 29t-202.5 65v323h36q82 -52 192.5 -90t201.5 -38q54 0 117.5 9.5t106.5 41.5q34 25 54.5 61.5t20.5 103.5q0 66 -29 101.5t-77 51.5q-48 17 -115 19t-118 2h-64v262h59
q68 0 125 6t97 24q40 19 62.5 53t22.5 92q0 45 -21 73.5t-52 44.5q-36 18 -84 24t-82 6q-55 0 -112 -13t-111 -33q-42 -16 -88 -41.5t-68 -38.5h-31v319q77 33 207.5 63.5t266.5 30.5q133 0 230.5 -23t166.5 -67q76 -47 114 -119.5t38 -163.5q0 -127 -73.5 -222.5
t-193.5 -123.5v-14q53 -8 103.5 -27t98.5 -62q45 -39 74.5 -100.5t29.5 -146.5z" />
    <glyph glyph-name="four" unicode="4" horiz-adv-x="1304" 
d="M1262 347h-201v-351h-361v351h-655v278l643 864h373v-874h201v-268zM700 615v507l-377 -507h377z" />
    <glyph glyph-name="five" unicode="5" horiz-adv-x="1304" 
d="M1211 504q0 -116 -39.5 -215t-118.5 -171q-78 -71 -185.5 -110t-264.5 -39q-166 1 -285.5 28.5t-197.5 61.5v325h34l63 -36t92 -42q53 -21 107.5 -34.5t121.5 -13.5q58 0 125 14.5t108 52.5q30 30 47 67t17 99q0 52 -21.5 89.5t-56.5 60.5q-51 34 -123 43.5t-124 9.5
q-82 0 -159.5 -13t-134.5 -28h-32v836h986v-281h-633v-248q30 2 71.5 3.5t64.5 1.5q107 0 198 -21.5t161 -66.5q85 -55 132 -147.5t47 -225.5z" />
    <glyph glyph-name="six" unicode="6" horiz-adv-x="1304" 
d="M1236 507q0 -235 -149 -386.5t-409 -151.5q-130 0 -232 37.5t-173 110.5q-85 86 -130 222t-45 325q0 196 42 348t137 269q91 111 238 173.5t348 62.5q73 0 146.5 -9.5t100.5 -15.5v-293h-27q-26 13 -86 29.5t-137 16.5q-175 0 -270 -92t-117 -264q73 47 148.5 75
t170.5 28q80 0 150.5 -21.5t125.5 -62.5q77 -59 122.5 -155t45.5 -246zM802 282q29 36 44.5 78.5t15.5 128.5q0 72 -18 119t-51 75t-75 38.5t-89 10.5q-39 0 -80.5 -10t-77.5 -25q0 -10 -1 -33t-1 -58q0 -128 22.5 -206t56.5 -118q26 -32 59.5 -46t70.5 -14q30 0 65 15
t59 45z" />
    <glyph glyph-name="seven" unicode="7" horiz-adv-x="1304" 
d="M1212 1193l-634 -1193h-416l665 1208h-710v281h1095v-296z" />
    <glyph glyph-name="eight" unicode="8" horiz-adv-x="1304" 
d="M1241 415q0 -96 -39.5 -178.5t-115.5 -142.5t-185.5 -94t-250.5 -34q-150 0 -263 34.5t-185 93.5q-71 59 -105 139t-34 169q0 128 70.5 213t204.5 142v6q-131 64 -183 155t-52 203q0 82 36 154t108 129q68 54 172.5 86.5t234.5 32.5q138 0 240.5 -29.5t168.5 -77.5
q68 -49 104 -118.5t36 -150.5q0 -106 -61.5 -191.5t-188.5 -143.5v-6q148 -60 218 -157.5t70 -233.5zM841 1103q0 76 -50 121.5t-136 45.5q-82 0 -132.5 -41t-50.5 -101t30.5 -96.5t94.5 -67.5q28 -14 66.5 -29t102.5 -39q39 51 57 98.5t18 108.5zM872 399q0 73 -31 112
t-133 88q-29 14 -83.5 35t-96.5 39q-39 -39 -69.5 -96.5t-30.5 -126.5q0 -104 66 -166t174 -62q29 0 66.5 9.5t66.5 29.5q32 23 51.5 54t19.5 84z" />
    <glyph glyph-name="nine" unicode="9" horiz-adv-x="1304" 
d="M1206 828q0 -190 -44 -348t-137 -271q-96 -115 -238.5 -176.5t-349.5 -61.5q-70 0 -146 9t-101 16v293h29q28 -14 79.5 -30t142.5 -16q73 0 141 19.5t117 61.5q51 44 85 110t46 165q-80 -50 -148.5 -76.5t-170.5 -26.5q-77 0 -147.5 20.5t-128.5 63.5q-77 60 -122 154.5
t-45 244.5q0 116 39.5 214.5t112.5 171.5q72 72 177 113t234 41q130 0 231 -36.5t173 -111.5q84 -85 127.5 -219t43.5 -324zM836 884q0 121 -20.5 199.5t-57.5 122.5q-26 32 -58.5 46t-70.5 14q-33 0 -64.5 -13.5t-60.5 -46.5q-26 -29 -44 -85t-18 -123q0 -72 18.5 -118.5
t50.5 -74.5q32 -27 73 -38t91 -11q42 0 86.5 11.5t71.5 23.5q0 11 1.5 31.5t1.5 61.5z" />
    <glyph glyph-name="colon" unicode=":" horiz-adv-x="744" 
d="M549 730h-354v393h354v-393zM549 0h-354v393h354v-393z" />
    <glyph glyph-name="semicolon" unicode=";" horiz-adv-x="744" 
d="M549 730h-354v393h354v-393zM610 393l-350 -763h-213l197 763h366z" />
    <glyph glyph-name="semicolon" unicode="&#x37e;" horiz-adv-x="744" 
d="M549 730h-354v393h354v-393zM610 393l-350 -763h-213l197 763h366z" />
    <glyph glyph-name="less" unicode="&#x3c;" horiz-adv-x="1676" 
d="M1465 14l-1284 533v220l1284 533v-276l-899 -368l899 -366v-276z" />
    <glyph glyph-name="equal" unicode="=" horiz-adv-x="1676" 
d="M1452 776h-1228v258h1228v-258zM1452 280h-1228v258h1228v-258z" />
    <glyph glyph-name="greater" unicode="&#x3e;" horiz-adv-x="1676" 
d="M1495 547l-1284 -533v276l899 367l-899 367v276l1284 -533v-220z" />
    <glyph glyph-name="question" unicode="?" horiz-adv-x="1160" 
d="M1084 1126q0 -99 -29.5 -177.5t-83.5 -136.5q-53 -57 -127.5 -102t-166.5 -82v-228h-342v335q56 15 124.5 41t120.5 64q55 39 90 91t35 123q0 99 -63 144t-175 45q-84 0 -178.5 -37t-148.5 -74h-29v301q64 28 187 57t264 29q126 0 222.5 -29.5t164.5 -82.5
q66 -53 100.5 -124.5t34.5 -156.5zM705 0h-394v264h394v-264z" />
    <glyph glyph-name="at" unicode="@" horiz-adv-x="1884" 
d="M1751 663q0 -137 -39.5 -284.5t-96.5 -239.5h-488l-15 78q-26 -18 -51.5 -34t-56.5 -27q-35 -13 -65 -19t-82 -6q-76 0 -142 34t-114 98q-47 62 -74.5 158.5t-27.5 209.5q0 116 34 211t91 164q54 63 127.5 100t153.5 37q64 0 114 -26t77 -53v61l221 1v-808h150
q29 66 47.5 156t18.5 183q0 164 -44 287t-123 206q-80 84 -187.5 124.5t-232.5 40.5q-118 0 -223.5 -45t-194.5 -134q-85 -86 -136.5 -212t-51.5 -279q0 -163 48.5 -290t133.5 -213q82 -85 191 -128.5t228 -43.5q84 0 182.5 15t181.5 40v-213q-91 -21 -175.5 -31t-189.5 -10
q-177 0 -328.5 63.5t-260.5 178.5q-110 116 -171.5 278t-61.5 356q0 184 64 343t176 278q111 117 263 183.5t324 66.5q171 0 319 -62t255 -174q109 -112 170.5 -268.5t61.5 -350.5zM1091 404v504q-41 21 -75.5 30.5t-78.5 9.5q-97 0 -149 -86t-52 -228q0 -157 43.5 -233.5
t142.5 -76.5q52 0 90.5 20.5t78.5 59.5z" />
    <glyph glyph-name="A" unicode="A" horiz-adv-x="1402" 
d="M-6 0l503 1489h408l503 -1489h-385l-93 304h-468l-93 -304h-375zM848 574l-152 491l-152 -491h304z" />
    <glyph glyph-name="B" unicode="B" horiz-adv-x="1405" 
d="M1345 456q0 -111 -42 -195t-113 -139q-84 -66 -184.5 -94t-255.5 -28h-596v1489h526q164 0 248.5 -12.5t158.5 -52.5q80 -43 119.5 -115t39.5 -166q0 -109 -54.5 -194t-150.5 -125v-8q138 -29 221 -118.5t83 -241.5zM866 1068q0 36 -18.5 74t-57.5 55q-37 16 -87.5 17.5
t-150.5 1.5h-26v-315h47q96 0 134.5 2t79.5 21q45 21 62 58t17 86zM960 463q0 69 -28 108t-84 59q-34 13 -93.5 14.5t-159.5 1.5h-69v-373h20q146 0 202 2t114 27q51 22 74.5 64.5t23.5 96.5z" />
    <glyph glyph-name="C" unicode="C" horiz-adv-x="1367" 
d="M796 -29q-335 0 -532 202.5t-197 569.5q0 354 197.5 564.5t532.5 210.5q89 0 160 -10t136 -28q51 -15 111 -41t97 -45v-355h-38q-27 24 -68 57.5t-93 65.5t-114.5 54.5t-130.5 22.5q-81 0 -148.5 -25.5t-128.5 -88.5q-56 -57 -91.5 -154t-35.5 -229q0 -139 37 -233.5
t97 -152.5q58 -56 129.5 -81t142.5 -25q74 0 141 24.5t113 54.5q50 31 88 63t66 57h34v-350q-41 -19 -95 -43.5t-111 -41.5q-70 -21 -131 -32t-168 -11z" />
    <glyph glyph-name="D" unicode="D" horiz-adv-x="1551" 
d="M1484 743q0 -208 -91 -372.5t-230 -252.5q-116 -75 -252.5 -96.5t-290.5 -21.5h-466v1489h462q157 0 294 -20t257 -97q147 -94 232 -253.5t85 -375.5zM1100 746q0 147 -50.5 251.5t-155.5 163.5q-76 42 -159.5 46t-199.5 4h-7v-932h7q126 0 212.5 4.5t164.5 53.5
q92 58 140 160t48 249z" />
    <glyph glyph-name="E" unicode="E" horiz-adv-x="1260" 
d="M154 0v1489h1007v-284h-635v-261h585v-284h-585v-376h635v-284h-1007z" />
    <glyph glyph-name="F" unicode="F" horiz-adv-x="1190" 
d="M1151 1205h-625v-281h575v-284h-575v-640h-372v1489h997v-284z" />
    <glyph glyph-name="G" unicode="G" horiz-adv-x="1526" 
d="M1398 85q-98 -40 -254.5 -78t-308.5 -38q-351 0 -559.5 202.5t-208.5 574.5q0 350 208.5 561t570.5 211q187 0 304 -35.5t242 -96.5v-349h-34q-27 21 -77.5 59.5t-98.5 65.5q-56 32 -129.5 55t-155.5 23q-96 0 -175 -30t-141 -92q-59 -60 -93.5 -152t-34.5 -214
q0 -261 131 -385t358 -124q20 0 47 1t47 3v292h-289v279h651v-733z" />
    <glyph glyph-name="H" unicode="H" horiz-adv-x="1565" 
d="M1411 0h-374v660h-509v-660h-374v1489h374v-545h509v545h374v-1489z" />
    <glyph glyph-name="I" unicode="I" horiz-adv-x="990" 
d="M896 0h-802v260h214v969h-214v260h802v-260h-214v-969h214v-260z" />
    <glyph glyph-name="J" unicode="J" horiz-adv-x="1025" 
d="M890 437q0 -97 -33 -182.5t-100 -145.5q-75 -68 -177 -100t-235 -32q-99 0 -186 7.5t-153 21.5v302h34q45 -18 94 -33.5t126 -15.5q99 0 152.5 28t75.5 78q23 49 25.5 113.5t2.5 143.5v597h-341v270h715v-1052z" />
    <glyph glyph-name="K" unicode="K" horiz-adv-x="1426" 
d="M1459 0h-452l-406 605l-73 -102v-503h-374v1489h374v-661l476 661h433l-531 -691z" />
    <glyph glyph-name="L" unicode="L" horiz-adv-x="1172" 
d="M1148 0h-994v1489h374v-1205h620v-284z" />
    <glyph glyph-name="M" unicode="M" horiz-adv-x="1829" 
d="M1675 0h-372v987l-271 -637h-255l-271 637v-987h-352v1489h431l330 -735l329 735h431v-1489z" />
    <glyph glyph-name="N" unicode="N" horiz-adv-x="1578" 
d="M1430 0h-360l-574 1038v-1038h-342v1489h459l475 -853v853h342v-1489z" />
    <glyph glyph-name="O" unicode="O" horiz-adv-x="1577" 
d="M1510 744q0 -361 -193 -568t-529 -207q-337 0 -529 209.5t-192 565.5q0 359 192 567.5t529 208.5q336 0 529 -207.5t193 -568.5zM1124 745q0 133 -27.5 226.5t-73.5 153.5q-48 61 -108.5 87.5t-125.5 26.5q-69 0 -125 -24.5t-108 -87.5q-46 -58 -74.5 -154t-28.5 -229
q0 -137 27 -227.5t74 -151.5q48 -62 109 -88.5t126 -26.5q66 0 128 28.5t107 88.5q48 65 74 151.5t26 226.5z" />
    <glyph glyph-name="P" unicode="P" horiz-adv-x="1346" 
d="M1300 1019q0 -104 -33 -198t-95 -157q-38 -39 -83.5 -72t-100.5 -56t-119.5 -36t-144.5 -13h-196v-487h-374v1489h578q129 0 222.5 -23.5t169.5 -74.5q84 -56 130 -149.5t46 -222.5zM916 1010q0 63 -30 108.5t-72 62.5q-53 23 -101.5 26.5t-131.5 3.5h-53v-446h26
q53 0 100 1t82 7q30 5 63.5 19.5t51.5 32.5q38 37 51.5 77t13.5 108z" />
    <glyph glyph-name="Q" unicode="Q" horiz-adv-x="1577" 
d="M1508 -394q-60 -15 -120.5 -22t-189.5 -7q-118 0 -200.5 29.5t-137.5 83.5q-55 53 -82.5 126t-31.5 157q-316 14 -497.5 219t-181.5 552q0 359 192 567.5t529 208.5q336 0 529 -207.5t193 -568.5q0 -263 -109.5 -451.5t-309.5 -267.5q2 -109 48.5 -150.5t163.5 -41.5
q45 0 95.5 13.5t72.5 25.5h37v-266zM1024 367q48 65 74 151.5t26 226.5q0 133 -27.5 226.5t-73.5 153.5q-48 61 -108.5 87.5t-125.5 26.5q-69 0 -125 -24.5t-108 -87.5q-46 -58 -74.5 -154t-28.5 -229q0 -137 27 -227.5t74 -151.5q48 -62 109 -88.5t126 -26.5q66 0 128 28.5
t107 88.5z" />
    <glyph glyph-name="R" unicode="R" horiz-adv-x="1487" 
d="M1531 0h-456l-415 546h-134v-546h-372v1489h599q124 0 216 -15.5t170 -64.5q80 -51 127 -129.5t47 -199.5q0 -171 -77 -277.5t-206 -169.5zM929 1033q0 56 -21.5 96.5t-71.5 62.5q-35 15 -78 19t-107 4h-125v-401h107q78 0 132.5 9.5t92.5 40.5q36 28 53.5 67t17.5 102z
" />
    <glyph glyph-name="S" unicode="S" horiz-adv-x="1297" 
d="M614 -27q-171 0 -300.5 33t-240.5 82v354h34q112 -95 247 -146t262 -51q32 0 84.5 7t84.5 22q39 17 66 47.5t27 80.5q0 56 -44 91t-105 51q-76 20 -162.5 38t-161.5 44q-173 61 -248 164t-75 258q0 209 177 338.5t442 129.5q133 0 264.5 -27t235.5 -73v-340h-33
q-83 71 -202.5 120t-245.5 49q-49 0 -88 -7t-82 -27q-35 -16 -60.5 -47.5t-25.5 -70.5q0 -57 40.5 -90.5t156.5 -60.5q75 -17 144.5 -33t148.5 -44q155 -56 230.5 -150.5t75.5 -249.5q0 -222 -174.5 -357t-471.5 -135z" />
    <glyph glyph-name="T" unicode="T" horiz-adv-x="1254" 
d="M440 0v1205h-440v284h1254v-284h-440v-1205h-374z" />
    <glyph glyph-name="U" unicode="U" horiz-adv-x="1513" 
d="M756 -31q-300 0 -461.5 145t-161.5 424v951h374v-929q0 -155 58.5 -231t190.5 -76q129 0 189.5 73t60.5 234v929h374v-950q0 -275 -157.5 -422.5t-466.5 -147.5z" />
    <glyph glyph-name="V" unicode="V" horiz-adv-x="1382" 
d="M1398 1489l-512 -1489h-390l-512 1489h388l324 -1009l324 1009h378z" />
    <glyph glyph-name="W" unicode="W" horiz-adv-x="2105" 
d="M2075 1489l-377 -1489h-410l-239 921l-232 -921h-410l-377 1489h388l205 -999l250 999h371l237 -999l216 999h378z" />
    <glyph glyph-name="X" unicode="X" horiz-adv-x="1402" 
d="M1414 0h-434l-286 475l-292 -475h-414l483 750l-464 739h433l268 -449l275 449h415l-467 -724z" />
    <glyph glyph-name="Y" unicode="Y" horiz-adv-x="1373" 
d="M1392 1489l-514 -867v-622h-374v603l-523 886h426l292 -532l281 532h412z" />
    <glyph glyph-name="Z" unicode="Z" horiz-adv-x="1275" 
d="M1235 0h-1181v279l685 926h-649v284h1105v-284l-684 -921h724v-284z" />
    <glyph glyph-name="bracketleft" unicode="[" horiz-adv-x="930" 
d="M794 -392h-628v1948h628v-236h-325v-1476h325v-236z" />
    <glyph glyph-name="backslash" unicode="\" horiz-adv-x="1182" 
d="M1074 -324h-287l-593 1880h290z" />
    <glyph glyph-name="bracketright" unicode="]" horiz-adv-x="930" 
d="M763 -392h-628v236h325v1476h-325v236h628v-1948z" />
    <glyph glyph-name="asciicircum" unicode="^" horiz-adv-x="1676" 
d="M1503 674h-312l-369 537l-338 -539h-311l529 817h240z" />
    <glyph glyph-name="underscore" unicode="_" horiz-adv-x="1304" 
d="M1320 -345h-1336v201h1336v-201z" />
    <glyph glyph-name="grave" unicode="`" horiz-adv-x="1118" 
d="M808 1283h-238l-300 393h331z" />
    <glyph glyph-name="a" unicode="a" horiz-adv-x="1226" 
d="M753 293v234q-89 -9 -144 -15.5t-108 -25.5q-46 -16 -71.5 -48.5t-25.5 -86.5q0 -79 42.5 -108.5t125.5 -29.5q46 0 94 21t87 59zM753 119q-36 -30 -64.5 -54t-76.5 -48q-47 -23 -91.5 -35t-124.5 -12q-149 0 -247.5 100t-98.5 252q0 125 50 202t144 122q95 46 227 64
t284 28v6q0 93 -68.5 128.5t-205.5 35.5q-62 0 -145 -22.5t-162 -57.5h-30v271q52 15 168 35.5t234 20.5q290 0 422.5 -96.5t132.5 -294.5v-764h-348v119z" />
    </font>
</defs>
</svg>
